<?xml version="1.0" standalone="no"?>
<!DOCTYPE svg PUBLIC "-//W3C//DTD SVG 1.1//EN" "http://www.w3.org/Graphics/SVG/1.1/DTD/svg11.dtd" >
<svg xmlns="http://www.w3.org/2000/svg" xmlns:xlink="http://www.w3.org/1999/xlink" version="1.1">
<metadata>
Created by FontForge 20161116 at Thu Mar  6 06:29:35 2014
 By Jimmy Wärting
Copyright (C) 1996, 2009 Hoefler &#38; Co. http://www.typography.com
</metadata>
<defs>
<font id="Whitney-Semibold" horiz-adv-x="695" >
  <font-face 
    font-family="Whitney Semibold"
    font-weight="375"
    font-stretch="normal"
    units-per-em="1000"
    panose-1="0 0 0 0 0 0 0 0 0 0"
    ascent="800"
    descent="-200"
    x-height="483"
    cap-height="690"
    bbox="-101 -278 999 1013"
    underline-thickness="50"
    underline-position="-100"
    stemh="52"
    stemv="74"
    unicode-range="U+0020-FB04"
  />
<missing-glyph horiz-adv-x="500" 
d="M0 -200v1000h500v-1000h-500zM71 750l179 -390l179 390h-358zM50 -76l172 376l-172 376v-752zM450 676l-172 -376l172 -376v752zM250 240l-179 -390h358z" />
    <glyph glyph-name="f_f" unicode="ff" horiz-adv-x="658" 
d="M321 614c-12 2 -30 4 -50 4c-41 0 -63 -18 -63 -60v-75h92l15 -98h-107v-385h-119v385h-70v98h70v87c0 107 68 146 167 146c18 0 35 -1 49 -3zM653 614c-12 2 -30 4 -50 4c-41 0 -63 -18 -63 -60v-75h92l15 -98h-107v-385h-119v385h-70v98h70v87c0 107 68 146 167 146
c18 0 35 -1 49 -3z" />
    <glyph glyph-name="fi" unicode="fi" horiz-adv-x="578" 
d="M524 632c0 -40 -32 -68 -71 -68c-40 0 -72 28 -72 68c0 41 32 70 72 70c39 0 71 -29 71 -70zM512 0h-120v483h120v-483zM321 614c-12 2 -30 4 -50 4c-41 0 -63 -18 -63 -60v-75h92l15 -98h-107v-385h-119v385h-70v98h70v87c0 107 68 146 167 146c18 0 35 -1 49 -3z" />
    <glyph glyph-name="fl" unicode="fl" horiz-adv-x="578" 
d="M512 0h-120v703l120 19v-722zM321 614c-12 2 -30 4 -50 4c-41 0 -63 -18 -63 -60v-75h92l15 -98h-107v-385h-119v385h-70v98h70v87c0 107 68 146 167 146c18 0 35 -1 49 -3z" />
    <glyph glyph-name="f_f_i" unicode="ffi" horiz-adv-x="911" 
d="M856 632c0 -40 -32 -68 -71 -68c-40 0 -72 28 -72 68c0 41 32 70 72 70c39 0 71 -29 71 -70zM844 0h-120v483h120v-483zM321 614c-12 2 -30 4 -50 4c-41 0 -63 -18 -63 -60v-75h92l15 -98h-107v-385h-119v385h-70v98h70v87c0 107 68 146 167 146c18 0 35 -1 49 -3z
M653 614c-12 2 -30 4 -50 4c-41 0 -63 -18 -63 -60v-75h92l15 -98h-107v-385h-119v385h-70v98h70v87c0 107 68 146 167 146c18 0 35 -1 49 -3z" />
    <glyph glyph-name="f_f_l" unicode="ffl" horiz-adv-x="911" 
d="M844 0h-120v703l120 19v-722zM321 614c-12 2 -30 4 -50 4c-41 0 -63 -18 -63 -60v-75h92l15 -98h-107v-385h-119v385h-70v98h70v87c0 107 68 146 167 146c18 0 35 -1 49 -3zM653 614c-12 2 -30 4 -50 4c-41 0 -63 -18 -63 -60v-75h92l15 -98h-107v-385h-119v385h-70v98
h70v87c0 107 68 146 167 146c18 0 35 -1 49 -3z" />
    <glyph glyph-name=".notdef" horiz-adv-x="500" 
d="M0 -200v1000h500v-1000h-500zM71 750l179 -390l179 390h-358zM50 -76l172 376l-172 376v-752zM450 676l-172 -376l172 -376v752zM250 240l-179 -390h358z" />
    <glyph glyph-name="A" unicode="A" 
d="M21 0l259 693h141l253 -676l-133 -24l-66 182h-261l-60 -175h-133zM345 550l-95 -267h188z" />
    <glyph glyph-name="B" unicode="B" horiz-adv-x="569" 
d="M531 201c0 -136 -98 -201 -260 -201h-198v690h201c155 0 229 -70 229 -179c0 -72 -40 -119 -100 -144c77 -24 128 -74 128 -166zM380 500c0 55 -33 89 -113 89h-67v-183h61c78 0 119 35 119 94zM404 205c0 70 -47 107 -135 107h-69v-211h71c84 0 133 35 133 104z" />
    <glyph glyph-name="C" unicode="C" horiz-adv-x="616" 
d="M576 47c-54 -35 -125 -59 -204 -59c-200 0 -326 141 -326 356c0 214 129 358 330 358c78 0 138 -18 189 -50l-19 -125c-45 34 -98 61 -165 61c-125 0 -200 -94 -200 -243c0 -150 78 -242 202 -242c65 0 122 24 175 60z" />
    <glyph glyph-name="D" unicode="D" horiz-adv-x="704" 
d="M656 346c0 -205 -129 -346 -364 -346h-219v690h219c240 0 364 -141 364 -344zM521 345c0 159 -92 236 -230 236h-86v-472h84c145 0 232 74 232 236z" />
    <glyph glyph-name="E" unicode="E" horiz-adv-x="521" 
d="M484 0h-411v690h401v-112h-270v-165h208l18 -111h-226v-190h280v-112z" />
    <glyph glyph-name="F" unicode="F" horiz-adv-x="491" 
d="M459 575h-254v-176h194l19 -114h-213v-285h-132v690h386v-115z" />
    <glyph glyph-name="G" unicode="G" horiz-adv-x="689" 
d="M627 57c-65 -42 -150 -70 -242 -70c-219 0 -339 144 -339 357c0 214 127 359 337 359c88 0 155 -22 210 -55l-19 -123c-52 37 -114 65 -190 65c-135 0 -203 -98 -203 -245c0 -148 70 -246 209 -246c48 0 82 10 116 28v153h-140l-16 106h277v-329z" />
    <glyph glyph-name="H" unicode="H" horiz-adv-x="705" 
d="M632 0h-133v299h-293v-299h-133v690h133v-273h293v273h133v-690z" />
    <glyph glyph-name="I" unicode="I" horiz-adv-x="288" 
d="M211 0h-133v690h133v-690z" />
    <glyph glyph-name="J" unicode="J" horiz-adv-x="397" 
d="M330 190c0 -140 -88 -197 -212 -197c-31 0 -62 4 -79 7l-18 115c22 -6 43 -10 79 -10c61 0 98 28 98 102v483h132v-500z" />
    <glyph glyph-name="K" unicode="K" horiz-adv-x="629" 
d="M626 18l-146 -25l-274 343v-336h-133v690h133v-303l249 303h159l-276 -323z" />
    <glyph glyph-name="L" unicode="L" horiz-adv-x="478" 
d="M454 0h-381v690h133v-572h230z" />
    <glyph glyph-name="M" unicode="M" horiz-adv-x="895" 
d="M842 0h-132l-37 509l-173 -511h-118l-174 511l-35 -509h-119l53 690h168l175 -521l174 521h165z" />
    <glyph glyph-name="M.alt" horiz-adv-x="883" 
d="M810 0h-125v501l-193 -504h-112l-193 504v-501h-114v690h173l197 -519l198 519h169v-690z" />
    <glyph glyph-name="N" unicode="N" horiz-adv-x="704" 
d="M631 0h-110l-325 475v-475h-123v690h125l310 -452v452h123v-690z" />
    <glyph glyph-name="O" unicode="O" horiz-adv-x="740" 
d="M694 346c0 -213 -127 -359 -325 -359c-196 0 -323 144 -323 357c0 214 128 359 325 359c198 0 323 -144 323 -357zM560 345c0 151 -72 248 -190 248s-189 -97 -189 -248s71 -248 189 -248c119 0 190 97 190 248z" />
    <glyph glyph-name="P" unicode="P" horiz-adv-x="556" 
d="M528 478c0 -149 -106 -224 -264 -224h-59v-254h-132v690h202c158 0 253 -73 253 -212zM398 475c0 72 -45 109 -130 109h-63v-223h58c85 0 135 35 135 114z" />
    <glyph glyph-name="Q" unicode="Q" horiz-adv-x="740" 
d="M694 351c0 -160 -74 -271 -187 -319l179 -61l-25 -114l-380 139c-155 56 -235 169 -235 348c0 214 128 359 325 359c196 0 323 -140 323 -352zM560 344c0 150 -72 249 -190 249c-119 0 -189 -99 -189 -249c0 -149 71 -252 189 -252c119 0 190 103 190 252z" />
    <glyph glyph-name="Q.alt" horiz-adv-x="749" 
d="M713 110l-24 -124l-106 83c-55 -51 -128 -80 -214 -80c-197 0 -323 142 -323 355c0 214 127 359 325 359c200 0 322 -146 322 -354c0 -73 -16 -138 -44 -193zM561 347c0 149 -72 246 -190 246c-120 0 -191 -97 -191 -249c0 -151 72 -248 191 -248c49 0 89 15 120 44
l-156 118l142 31l69 -55c10 32 15 70 15 113z" />
    <glyph glyph-name="R" unicode="R" horiz-adv-x="593" 
d="M581 18l-140 -25l-180 271h-56v-264h-132v690h214c154 0 247 -73 247 -207c0 -101 -54 -164 -140 -194zM404 476c0 69 -44 108 -127 108h-73v-219h67c82 0 133 39 133 111z" />
    <glyph glyph-name="S" unicode="S" horiz-adv-x="533" 
d="M493 197c0 -135 -99 -205 -232 -205c-84 0 -156 19 -217 48l20 121c58 -34 130 -61 199 -61c61 0 103 29 103 84c0 51 -24 72 -124 115c-134 55 -188 99 -188 206c0 122 94 193 223 193c78 0 132 -16 182 -42l-20 -120c-50 33 -109 54 -163 54c-66 0 -95 -32 -95 -74
c0 -44 22 -65 118 -105c142 -58 194 -107 194 -214z" />
    <glyph glyph-name="T" unicode="T" horiz-adv-x="605" 
d="M584 575h-215v-575h-132v575h-208v115h536z" />
    <glyph glyph-name="U" unicode="U" horiz-adv-x="688" 
d="M623 270c0 -183 -114 -282 -281 -282s-276 99 -276 279v423h132v-416c0 -105 48 -171 145 -171c98 0 147 62 147 168v419h133v-420z" />
    <glyph glyph-name="U.alt" 
d="M513 0l-12 71c-65 -47 -132 -79 -212 -79c-134 0 -220 67 -220 225v473h132v-454c0 -85 37 -128 116 -128c60 0 117 28 173 74v508h133v-690h-110z" />
    <glyph glyph-name="V" unicode="V" horiz-adv-x="685" 
d="M664 690l-257 -694h-134l-252 677l139 24l185 -529l180 522h139z" />
    <glyph glyph-name="W" unicode="W" horiz-adv-x="1003" 
d="M977 690l-198 -692h-126l-153 504l-153 -504h-125l-193 674l140 25l128 -494l144 487h133l144 -487l125 487h134z" />
    <glyph glyph-name="W.alt" horiz-adv-x="1015" 
d="M993 690l-236 -693h-128l-124 345l-124 -345h-125l-234 676l139 25l170 -526l118 329l-60 173l138 24l171 -526l159 518h136z" />
    <glyph glyph-name="X" unicode="X" horiz-adv-x="649" 
d="M627 18l-139 -25l-168 273l-161 -266h-140l227 355l-205 317l139 25l148 -243l141 236h140l-208 -326z" />
    <glyph glyph-name="Y" unicode="Y" horiz-adv-x="653" 
d="M641 690l-249 -426v-264h-133v263l-241 412l138 22l173 -311l168 304h144z" />
    <glyph glyph-name="Z" unicode="Z" horiz-adv-x="603" 
d="M568 0h-527v97l357 484h-325l-17 109h503v-97l-357 -484h349z" />
    <glyph glyph-name="a" unicode="a" horiz-adv-x="503" 
d="M445 0h-103l-10 63c-39 -41 -89 -73 -161 -73c-82 0 -137 50 -137 134c0 117 96 168 291 187v14c0 52 -30 72 -83 72c-56 0 -109 -16 -161 -39l-15 96c56 22 115 39 192 39c125 0 187 -46 187 -162v-331zM325 133v108c-139 -17 -172 -58 -172 -104c0 -35 22 -56 59 -56
c41 0 80 19 113 52z" />
    <glyph glyph-name="b" unicode="b" horiz-adv-x="537" 
d="M500 255c0 -178 -97 -261 -241 -261c-75 0 -138 12 -198 32v677l120 19v-293c31 32 76 64 137 64c102 0 182 -76 182 -238zM379 248c0 93 -38 139 -92 139c-40 0 -76 -27 -106 -63v-219c25 -9 42 -13 76 -13c76 0 122 46 122 156z" />
    <glyph glyph-name="c" unicode="c" horiz-adv-x="460" 
d="M425 37c-46 -31 -96 -46 -160 -46c-134 0 -229 90 -229 248c0 168 105 254 236 254c63 0 113 -19 148 -41l-17 -108c-39 29 -77 45 -125 45c-71 0 -121 -51 -121 -147c0 -100 55 -148 125 -148c42 0 83 12 127 46z" />
    <glyph glyph-name="d" unicode="d" horiz-adv-x="541" 
d="M480 0h-103l-10 67c-34 -41 -81 -77 -148 -77c-101 0 -182 75 -182 238c0 180 99 260 211 260c46 0 83 -8 112 -18v233l120 19v-722zM360 163v208c-30 14 -53 21 -94 21c-63 0 -109 -51 -109 -157c0 -94 40 -138 93 -138c44 0 78 26 110 66z" />
    <glyph glyph-name="e" unicode="e" horiz-adv-x="502" 
d="M465 49c-52 -36 -115 -59 -193 -59c-135 0 -236 77 -236 251c0 157 94 252 220 252c145 0 210 -109 210 -246c0 -10 -1 -22 -1 -29h-311c6 -95 57 -135 131 -135c62 0 113 23 166 60zM253 410c-48 0 -88 -39 -97 -117h193c-8 75 -38 117 -96 117z" />
    <glyph glyph-name="f" unicode="f" horiz-adv-x="326" 
d="M321 614c-12 2 -30 4 -50 4c-41 0 -63 -18 -63 -60v-75h92l15 -98h-107v-385h-119v385h-70v98h70v87c0 107 68 146 167 146c18 0 35 -1 49 -3z" />
    <glyph glyph-name="g" unicode="g" horiz-adv-x="519" 
d="M494 -20c0 -104 -114 -162 -254 -162c-131 0 -230 40 -230 120c0 46 31 80 91 113c-19 15 -28 33 -28 53c0 27 21 53 61 76c-57 27 -91 78 -91 142c0 105 86 171 194 171c55 0 102 -16 137 -45l118 42l16 -96l-88 -6c8 -19 13 -41 13 -63c0 -104 -89 -166 -193 -166
c-14 0 -28 0 -40 2c-12 -8 -19 -17 -19 -25c0 -16 15 -20 90 -31l62 -6c99 -14 161 -45 161 -119zM237 12c-33 4 -49 6 -72 11c-35 -24 -51 -47 -51 -72c0 -36 43 -62 134 -62c86 0 135 29 135 65c0 26 -21 41 -81 50zM323 325c0 52 -34 91 -85 91c-53 0 -84 -41 -84 -94
c0 -50 32 -88 84 -88c53 0 85 39 85 91z" />
    <glyph glyph-name="g.alt" horiz-adv-x="537" 
d="M476 19c0 -127 -72 -201 -226 -201c-72 0 -132 15 -184 36l18 99c47 -25 102 -41 160 -41c76 0 112 37 112 102v51c-32 -31 -76 -63 -137 -63c-102 0 -182 75 -182 233c0 171 96 254 241 254c75 0 138 -12 198 -32v-438zM356 168v209c-25 9 -42 14 -76 14
c-76 0 -123 -47 -123 -151c0 -89 39 -134 93 -134c40 0 75 26 106 62z" />
    <glyph glyph-name="h" unicode="h" horiz-adv-x="532" 
d="M473 0h-120v316c0 42 -18 71 -62 71c-38 0 -75 -24 -110 -61v-326h-120v703l120 19v-300c40 37 90 71 154 71c90 0 138 -55 138 -145v-348z" />
    <glyph glyph-name="i" unicode="i" horiz-adv-x="252" 
d="M198 632c0 -40 -32 -68 -71 -68c-40 0 -72 28 -72 68c0 41 32 70 72 70c39 0 71 -29 71 -70zM186 0h-120v483h120v-483z" />
    <glyph glyph-name="j" unicode="j" horiz-adv-x="253" 
d="M198 632c0 -40 -32 -68 -71 -68c-40 0 -72 28 -72 68c0 41 32 70 72 70c39 0 71 -29 71 -70zM186 -37c0 -104 -60 -145 -149 -145c-18 0 -39 1 -47 4l-15 98c11 -3 24 -4 38 -4c33 0 53 15 53 57v510h120v-520z" />
    <glyph glyph-name="k" unicode="k" horiz-adv-x="493" 
d="M485 11l-128 -18l-176 247v-240h-120v703l120 19v-439l157 200h136l-178 -218z" />
    <glyph glyph-name="l" unicode="l" horiz-adv-x="252" 
d="M186 0h-120v703l120 19v-722z" />
    <glyph glyph-name="m" unicode="m" horiz-adv-x="813" 
d="M754 0h-120v316c0 42 -15 71 -59 71c-37 0 -72 -24 -107 -60v-327h-120v316c0 42 -16 71 -60 71c-37 0 -72 -24 -107 -60v-327h-120v483h102l11 -68c45 43 94 78 159 78c69 0 106 -31 124 -78c43 43 96 78 161 78c91 0 136 -55 136 -145v-348z" />
    <glyph glyph-name="n" unicode="n" horiz-adv-x="532" 
d="M473 0h-120v316c0 42 -18 71 -62 71c-38 0 -75 -24 -110 -61v-326h-120v483h102l11 -68c45 43 96 78 161 78c90 0 138 -55 138 -145v-348z" />
    <glyph glyph-name="o" unicode="o" horiz-adv-x="527" 
d="M491 241c0 -157 -97 -251 -229 -251c-131 0 -226 94 -226 251s96 252 227 252c132 0 228 -95 228 -252zM374 241c0 89 -40 154 -112 154c-71 0 -109 -64 -109 -154c0 -88 39 -153 109 -153c74 0 112 63 112 153z" />
    <glyph glyph-name="p" unicode="p" horiz-adv-x="541" 
d="M504 255c0 -180 -100 -260 -211 -260c-46 0 -83 8 -112 19v-182l-120 -18v669h102l11 -66c34 39 81 76 148 76c101 0 182 -76 182 -238zM383 248c0 93 -39 139 -93 139c-43 0 -77 -27 -109 -68v-207c29 -14 52 -21 93 -21c62 0 109 51 109 157z" />
    <glyph glyph-name="q" unicode="q" horiz-adv-x="537" 
d="M476 -168l-120 -18v240c-32 -32 -76 -64 -137 -64c-102 0 -182 75 -182 238c0 178 96 261 241 261c75 0 138 -12 198 -32v-625zM356 159v218c-25 9 -42 14 -76 14c-76 0 -123 -46 -123 -156c0 -94 39 -138 93 -138c40 0 75 26 106 62z" />
    <glyph glyph-name="r" unicode="r" horiz-adv-x="367" 
d="M352 374c-75 -5 -137 -45 -171 -97v-277h-120v483h102l15 -97c32 56 80 103 155 107z" />
    <glyph glyph-name="s" unicode="s" horiz-adv-x="453" 
d="M419 142c0 -95 -68 -152 -195 -152c-70 0 -142 22 -188 47l16 100c52 -34 116 -57 176 -57c52 0 80 19 80 51c0 34 -21 48 -98 67c-117 30 -166 64 -166 152c0 84 66 143 178 143c63 0 121 -13 169 -34l-16 -100c-48 27 -105 44 -153 44c-45 0 -67 -18 -67 -44
s18 -41 90 -60c125 -32 174 -66 174 -157z" />
    <glyph glyph-name="t" unicode="t" horiz-adv-x="350" 
d="M321 0c-19 -4 -41 -8 -76 -8c-95 0 -159 35 -159 145v248h-68v98h68v153l118 18v-171h99l15 -98h-114v-228c0 -39 18 -60 64 -60c14 0 27 1 38 4z" />
    <glyph glyph-name="u" unicode="u" horiz-adv-x="532" 
d="M471 0h-102l-11 68c-45 -43 -97 -78 -161 -78c-91 0 -138 55 -138 146v347h120v-316c0 -42 18 -70 61 -70c38 0 76 24 111 60v326h120v-483z" />
    <glyph glyph-name="v" unicode="v" horiz-adv-x="488" 
d="M473 483l-170 -486h-119l-167 477l126 16l106 -343l104 336h120z" />
    <glyph glyph-name="w" unicode="w" horiz-adv-x="723" 
d="M704 483l-144 -484h-110l-89 319l-87 -319h-110l-144 475l122 16l85 -327l87 320h106l87 -319l83 319h114z" />
    <glyph glyph-name="x" unicode="x" horiz-adv-x="484" 
d="M462 9l-122 -16l-103 173l-96 -166h-119l153 243l-144 231l122 16l92 -159l90 152h118l-145 -230z" />
    <glyph glyph-name="y" unicode="y" horiz-adv-x="496" 
d="M481 483l-185 -514c-41 -116 -97 -151 -184 -151c-26 0 -38 2 -49 5l-16 101c15 -4 32 -7 53 -7c38 0 66 16 85 61l7 20l-175 476l125 16l112 -343l106 336h121z" />
    <glyph glyph-name="z" unicode="z" horiz-adv-x="460" 
d="M430 0h-399v92l242 295h-217l-15 96h377v-92l-242 -295h238z" />
    <glyph glyph-name="Aacute" unicode="&#xc1;" 
d="M21 0l259 693h141l253 -676l-133 -24l-66 182h-261l-60 -175h-133zM345 550l-95 -267h188zM518 880l-140 -124h-79l74 151z" />
    <glyph glyph-name="aacute" unicode="&#xe1;" horiz-adv-x="503" 
d="M445 0h-103l-10 63c-39 -41 -89 -73 -161 -73c-82 0 -137 50 -137 134c0 117 96 168 291 187v14c0 52 -30 72 -83 72c-56 0 -109 -16 -161 -39l-15 96c56 22 115 39 192 39c125 0 187 -46 187 -162v-331zM325 133v108c-139 -17 -172 -58 -172 -104c0 -35 22 -56 59 -56
c41 0 80 19 113 52zM422 671l-140 -124h-79l74 151z" />
    <glyph glyph-name="Abreve" unicode="&#x102;" 
d="M21 0l259 693h141l253 -676l-133 -24l-66 182h-261l-60 -175h-133zM498 882c-13 -79 -61 -126 -151 -126c-85 0 -135 46 -149 126l72 13c13 -38 35 -57 79 -57c42 0 64 19 77 57zM345 550l-95 -267h188z" />
    <glyph glyph-name="abreve" unicode="&#x103;" horiz-adv-x="503" 
d="M445 0h-103l-10 63c-39 -41 -89 -73 -161 -73c-82 0 -137 50 -137 134c0 117 96 168 291 187v14c0 52 -30 72 -83 72c-56 0 -109 -16 -161 -39l-15 96c56 22 115 39 192 39c125 0 187 -46 187 -162v-331zM325 133v108c-139 -17 -172 -58 -172 -104c0 -35 22 -56 59 -56
c41 0 80 19 113 52zM403 673c-13 -79 -61 -126 -151 -126c-85 0 -135 46 -149 126l72 13c13 -38 35 -57 79 -57c42 0 64 19 77 57z" />
    <glyph glyph-name="Acircumflex" unicode="&#xc2;" 
d="M21 0l259 693h141l253 -676l-133 -24l-66 182h-261l-60 -175h-133zM503 756h-76l-79 65l-79 -65h-76l99 144h112zM345 550l-95 -267h188z" />
    <glyph glyph-name="acircumflex" unicode="&#xe2;" horiz-adv-x="503" 
d="M445 0h-103l-10 63c-39 -41 -89 -73 -161 -73c-82 0 -137 50 -137 134c0 117 96 168 291 187v14c0 52 -30 72 -83 72c-56 0 -109 -16 -161 -39l-15 96c56 22 115 39 192 39c125 0 187 -46 187 -162v-331zM325 133v108c-139 -17 -172 -58 -172 -104c0 -35 22 -56 59 -56
c41 0 80 19 113 52zM407 547h-76l-79 65l-79 -65h-76l99 144h112z" />
    <glyph glyph-name="Adieresis" unicode="&#xc4;" 
d="M21 0l259 693h141l253 -676l-133 -24l-66 182h-261l-60 -175h-133zM345 550l-95 -267h188zM500 759h-115v115h115v-115zM311 759h-115v115h115v-115z" />
    <glyph glyph-name="adieresis" unicode="&#xe4;" horiz-adv-x="503" 
d="M445 0h-103l-10 63c-39 -41 -89 -73 -161 -73c-82 0 -137 50 -137 134c0 117 96 168 291 187v14c0 52 -30 72 -83 72c-56 0 -109 -16 -161 -39l-15 96c56 22 115 39 192 39c125 0 187 -46 187 -162v-331zM325 133v108c-139 -17 -172 -58 -172 -104c0 -35 22 -56 59 -56
c41 0 80 19 113 52zM405 550h-115v115h115v-115zM216 550h-115v115h115v-115z" />
    <glyph glyph-name="Agrave" unicode="&#xc0;" 
d="M21 0l259 693h141l253 -676l-133 -24l-66 182h-261l-60 -175h-133zM345 550l-95 -267h188zM398 756h-79l-141 124l147 27z" />
    <glyph glyph-name="agrave" unicode="&#xe0;" horiz-adv-x="503" 
d="M445 0h-103l-10 63c-39 -41 -89 -73 -161 -73c-82 0 -137 50 -137 134c0 117 96 168 291 187v14c0 52 -30 72 -83 72c-56 0 -109 -16 -161 -39l-15 96c56 22 115 39 192 39c125 0 187 -46 187 -162v-331zM325 133v108c-139 -17 -172 -58 -172 -104c0 -35 22 -56 59 -56
c41 0 80 19 113 52zM303 547h-79l-141 124l147 27z" />
    <glyph glyph-name="Amacron" unicode="&#x100;" 
d="M21 0l259 693h141l253 -676l-133 -24l-66 182h-261l-60 -175h-133zM345 550l-95 -267h188zM490 773h-284v88h284v-88z" />
    <glyph glyph-name="amacron" unicode="&#x101;" horiz-adv-x="503" 
d="M445 0h-103l-10 63c-39 -41 -89 -73 -161 -73c-82 0 -137 50 -137 134c0 117 96 168 291 187v14c0 52 -30 72 -83 72c-56 0 -109 -16 -161 -39l-15 96c56 22 115 39 192 39c125 0 187 -46 187 -162v-331zM325 133v108c-139 -17 -172 -58 -172 -104c0 -35 22 -56 59 -56
c41 0 80 19 113 52zM395 564h-284v88h284v-88z" />
    <glyph glyph-name="Aogonek" unicode="&#x104;" 
d="M21 0l259 693h141l253 -676l-32 -6l-22 -35c-19 -28 -29 -45 -29 -63c0 -21 13 -30 37 -30c14 0 27 2 42 6v-65c-26 -10 -56 -18 -87 -18c-53 0 -86 25 -86 76c0 32 17 67 53 113l-9 -2l-66 182h-261l-60 -175h-133zM345 550l-95 -267h188z" />
    <glyph glyph-name="aogonek" unicode="&#x105;" horiz-adv-x="503" 
d="M445 0h-21l-15 -24c-19 -28 -29 -45 -29 -63c0 -21 13 -30 37 -30c14 0 27 2 42 6v-65c-26 -10 -56 -18 -87 -18c-53 0 -86 25 -86 76c0 34 18 70 57 118h-1l-10 63c-39 -41 -89 -73 -161 -73c-82 0 -137 50 -137 134c0 117 96 168 291 187v14c0 52 -30 72 -83 72
c-56 0 -109 -16 -161 -39l-15 96c56 22 115 39 192 39c125 0 187 -46 187 -162v-331zM325 133v108c-139 -17 -172 -58 -172 -104c0 -35 22 -56 59 -56c41 0 80 19 113 52z" />
    <glyph glyph-name="Aring" unicode="&#xc5;" 
d="M466 729c0 -30 -11 -56 -31 -74l239 -638l-132 -24l-66 182h-262l-62 -175h-131l243 651c-22 19 -34 46 -34 78c0 59 45 106 118 106s118 -47 118 -106zM345 550l-95 -267h189zM401 729c0 32 -22 59 -53 59c-32 0 -54 -27 -54 -59c0 -33 22 -59 54 -59c31 0 53 26 53 59z
" />
    <glyph glyph-name="aring" unicode="&#xe5;" horiz-adv-x="503" 
d="M445 0h-103l-10 63c-39 -41 -89 -73 -161 -73c-82 0 -137 50 -137 134c0 117 96 168 291 187v14c0 52 -30 72 -83 72c-56 0 -109 -16 -161 -39l-15 96c56 22 115 39 192 39c125 0 187 -46 187 -162v-331zM325 133v108c-139 -17 -172 -58 -172 -104c0 -35 22 -56 59 -56
c41 0 80 19 113 52zM371 650c0 -60 -45 -105 -118 -105s-118 45 -118 105c0 59 45 106 118 106s118 -47 118 -106zM307 650c0 32 -22 59 -54 59s-54 -27 -54 -59c0 -33 22 -59 54 -59s54 26 54 59z" />
    <glyph glyph-name="Aringacute" unicode="&#x1fa;" 
d="M466 729c0 -30 -11 -56 -31 -74l239 -638l-132 -24l-66 182h-262l-62 -175h-131l243 651c-22 19 -34 46 -34 78c0 59 45 106 118 106s118 -47 118 -106zM345 550l-95 -267h189zM518 986l-140 -124h-79l74 151zM401 729c0 32 -22 59 -53 59c-32 0 -54 -27 -54 -59
c0 -33 22 -59 54 -59c31 0 53 26 53 59z" />
    <glyph glyph-name="aringacute" unicode="&#x1fb;" horiz-adv-x="503" 
d="M445 0h-103l-10 63c-39 -41 -89 -73 -161 -73c-82 0 -137 50 -137 134c0 117 96 168 291 187v14c0 52 -30 72 -83 72c-56 0 -109 -16 -161 -39l-15 96c56 22 115 39 192 39c125 0 187 -46 187 -162v-331zM325 133v108c-139 -17 -172 -58 -172 -104c0 -35 22 -56 59 -56
c41 0 80 19 113 52zM427 917l-140 -124h-79l74 151zM372 650c0 -60 -45 -105 -118 -105s-118 45 -118 105c0 59 45 106 118 106s118 -47 118 -106zM308 650c0 32 -22 59 -54 59s-54 -27 -54 -59c0 -33 22 -59 54 -59s54 26 54 59z" />
    <glyph glyph-name="Atilde" unicode="&#xc3;" 
d="M21 0l259 693h141l253 -676l-133 -24l-66 182h-261l-60 -175h-133zM513 884c-11 -89 -41 -126 -89 -126c-26 0 -43 8 -71 21c-38 18 -50 23 -65 23s-24 -10 -32 -48l-64 14c11 90 40 127 88 127c26 0 44 -8 71 -21c38 -19 50 -24 65 -24s24 11 32 48zM345 550l-95 -267
h188z" />
    <glyph glyph-name="atilde" unicode="&#xe3;" horiz-adv-x="503" 
d="M445 0h-103l-10 63c-39 -41 -89 -73 -161 -73c-82 0 -137 50 -137 134c0 117 96 168 291 187v14c0 52 -30 72 -83 72c-56 0 -109 -16 -161 -39l-15 96c56 22 115 39 192 39c125 0 187 -46 187 -162v-331zM325 133v108c-139 -17 -172 -58 -172 -104c0 -35 22 -56 59 -56
c41 0 80 19 113 52zM417 675c-11 -89 -41 -126 -89 -126c-26 0 -43 8 -71 21c-38 18 -50 23 -65 23s-24 -10 -32 -48l-64 14c11 90 40 127 88 127c26 0 44 -8 71 -21c38 -19 50 -24 65 -24s24 11 32 48z" />
    <glyph glyph-name="Cacute" unicode="&#x106;" horiz-adv-x="616" 
d="M530 880l-140 -124h-79l74 151zM576 47c-54 -35 -125 -59 -204 -59c-200 0 -326 141 -326 356c0 214 129 358 330 358c78 0 138 -18 189 -50l-19 -125c-45 34 -98 61 -165 61c-125 0 -200 -94 -200 -243c0 -150 78 -242 202 -242c65 0 122 24 175 60z" />
    <glyph glyph-name="cacute" unicode="&#x107;" horiz-adv-x="460" 
d="M433 671l-140 -124h-79l74 151zM425 37c-46 -31 -96 -46 -160 -46c-134 0 -229 90 -229 248c0 168 105 254 236 254c63 0 113 -19 148 -41l-17 -108c-39 29 -77 45 -125 45c-71 0 -121 -51 -121 -147c0 -100 55 -148 125 -148c42 0 83 12 127 46z" />
    <glyph glyph-name="Ccaron" unicode="&#x10c;" horiz-adv-x="616" 
d="M206 900h76l79 -65l79 65h76l-99 -144h-112zM576 47c-54 -35 -125 -59 -204 -59c-200 0 -326 141 -326 356c0 214 129 358 330 358c78 0 138 -18 189 -50l-19 -125c-45 34 -98 61 -165 61c-125 0 -200 -94 -200 -243c0 -150 78 -242 202 -242c65 0 122 24 175 60z" />
    <glyph glyph-name="ccaron" unicode="&#x10d;" horiz-adv-x="460" 
d="M109 691h76l79 -65l79 65h76l-99 -144h-112zM425 37c-46 -31 -96 -46 -160 -46c-134 0 -229 90 -229 248c0 168 105 254 236 254c63 0 113 -19 148 -41l-17 -108c-39 29 -77 45 -125 45c-71 0 -121 -51 -121 -147c0 -100 55 -148 125 -148c42 0 83 12 127 46z" />
    <glyph glyph-name="Ccedilla" unicode="&#xc7;" horiz-adv-x="616" 
d="M576 47c-54 -35 -125 -59 -204 -59c-200 0 -326 141 -326 356c0 214 129 358 330 358c78 0 138 -18 189 -50l-19 -125c-45 34 -98 61 -165 61c-125 0 -200 -94 -200 -243c0 -150 78 -242 202 -242c65 0 122 24 175 60zM441 -91l-131 -107h-79l65 135z" />
    <glyph glyph-name="ccedilla" unicode="&#xe7;" horiz-adv-x="460" 
d="M425 37c-46 -31 -96 -46 -160 -46c-134 0 -229 90 -229 248c0 168 105 254 236 254c63 0 113 -19 148 -41l-17 -108c-39 29 -77 45 -125 45c-71 0 -121 -51 -121 -147c0 -100 55 -148 125 -148c42 0 83 12 127 46zM345 -85l-131 -107h-79l65 135z" />
    <glyph glyph-name="Cdotaccent" unicode="&#x10a;" horiz-adv-x="616" 
d="M576 47c-54 -35 -125 -59 -204 -59c-200 0 -326 141 -326 356c0 214 129 358 330 358c78 0 138 -18 189 -50l-19 -125c-45 34 -98 61 -165 61c-125 0 -200 -94 -200 -243c0 -150 78 -242 202 -242c65 0 122 24 175 60zM420 759h-118v115h118v-115z" />
    <glyph glyph-name="cdotaccent" unicode="&#x10b;" horiz-adv-x="460" 
d="M425 37c-46 -31 -96 -46 -160 -46c-134 0 -229 90 -229 248c0 168 105 254 236 254c63 0 113 -19 148 -41l-17 -108c-39 29 -77 45 -125 45c-71 0 -121 -51 -121 -147c0 -100 55 -148 125 -148c42 0 83 12 127 46zM323 550h-118v115h118v-115z" />
    <glyph glyph-name="Dcaron" unicode="&#x10e;" horiz-adv-x="704" 
d="M183 890h76l79 -65l79 65h76l-99 -144h-112zM656 346c0 -205 -129 -346 -364 -346h-219v690h219c240 0 364 -141 364 -344zM521 345c0 159 -92 236 -230 236h-86v-472h84c145 0 232 74 232 236z" />
    <glyph glyph-name="dcaron" unicode="&#x10f;" horiz-adv-x="541" 
d="M632 722c10 -24 16 -48 16 -72c0 -47 -27 -93 -67 -130l-59 12c22 37 31 64 31 97c0 24 -9 50 -23 79zM480 0h-103l-10 67c-34 -41 -81 -77 -148 -77c-101 0 -182 75 -182 238c0 180 99 260 211 260c46 0 83 -8 112 -18v233l120 19v-722zM360 163v208
c-30 14 -53 21 -94 21c-63 0 -109 -51 -109 -157c0 -94 40 -138 93 -138c44 0 78 26 110 66z" />
    <glyph glyph-name="Dcroat" unicode="&#x110;" horiz-adv-x="727" 
d="M679 346c0 -205 -129 -346 -364 -346h-219v301h-69l-18 114h87v275h219c240 0 364 -141 364 -344zM545 345c0 159 -93 236 -231 236h-87v-168h143v-111h-143v-193h86c144 0 232 74 232 236z" />
    <glyph glyph-name="dcroat" unicode="&#x111;" horiz-adv-x="541" 
d="M480 0h-103l-10 67c-34 -41 -81 -77 -148 -77c-101 0 -182 75 -182 238c0 180 99 260 211 260c46 0 83 -8 112 -18v85h-117l-14 83h131v65l120 19v-84h66v-83h-66v-555zM360 163v208c-30 14 -53 21 -94 21c-63 0 -109 -51 -109 -157c0 -94 40 -138 93 -138
c44 0 78 26 110 66z" />
    <glyph glyph-name="Eacute" unicode="&#xc9;" horiz-adv-x="521" 
d="M446 870l-140 -124h-79l74 151zM484 0h-411v690h401v-112h-270v-165h208l18 -111h-226v-190h280v-112z" />
    <glyph glyph-name="eacute" unicode="&#xe9;" horiz-adv-x="502" 
d="M465 49c-52 -36 -115 -59 -193 -59c-135 0 -236 77 -236 251c0 157 94 252 220 252c145 0 210 -109 210 -246c0 -10 -1 -22 -1 -29h-311c6 -95 57 -135 131 -135c62 0 113 23 166 60zM253 410c-48 0 -88 -39 -97 -117h193c-8 75 -38 117 -96 117zM429 671l-140 -124h-79
l74 151z" />
    <glyph glyph-name="Ebreve" unicode="&#x114;" horiz-adv-x="521" 
d="M484 0h-411v690h401v-112h-270v-165h208l18 -111h-226v-190h280v-112zM426 872c-13 -79 -61 -126 -151 -126c-85 0 -135 46 -149 126l72 13c13 -38 35 -57 79 -57c42 0 64 19 77 57z" />
    <glyph glyph-name="ebreve" unicode="&#x115;" horiz-adv-x="502" 
d="M465 49c-52 -36 -115 -59 -193 -59c-135 0 -236 77 -236 251c0 157 94 252 220 252c145 0 210 -109 210 -246c0 -10 -1 -22 -1 -29h-311c6 -95 57 -135 131 -135c62 0 113 23 166 60zM410 673c-13 -79 -61 -126 -151 -126c-85 0 -135 46 -149 126l72 13
c13 -38 35 -57 79 -57c42 0 64 19 77 57zM253 410c-48 0 -88 -39 -97 -117h193c-8 75 -38 117 -96 117z" />
    <glyph glyph-name="Ecaron" unicode="&#x11a;" horiz-adv-x="521" 
d="M121 890h76l79 -65l79 65h76l-99 -144h-112zM484 0h-411v690h401v-112h-270v-165h208l18 -111h-226v-190h280v-112z" />
    <glyph glyph-name="ecaron" unicode="&#x11b;" horiz-adv-x="502" 
d="M465 49c-52 -36 -115 -59 -193 -59c-135 0 -236 77 -236 251c0 157 94 252 220 252c145 0 210 -109 210 -246c0 -10 -1 -22 -1 -29h-311c6 -95 57 -135 131 -135c62 0 113 23 166 60zM105 691h76l79 -65l79 65h76l-99 -144h-112zM253 410c-48 0 -88 -39 -97 -117h193
c-8 75 -38 117 -96 117z" />
    <glyph glyph-name="Ecircumflex" unicode="&#xca;" horiz-adv-x="521" 
d="M431 746h-76l-79 65l-79 -65h-76l99 144h112zM484 0h-411v690h401v-112h-270v-165h208l18 -111h-226v-190h280v-112z" />
    <glyph glyph-name="ecircumflex" unicode="&#xea;" horiz-adv-x="502" 
d="M465 49c-52 -36 -115 -59 -193 -59c-135 0 -236 77 -236 251c0 157 94 252 220 252c145 0 210 -109 210 -246c0 -10 -1 -22 -1 -29h-311c6 -95 57 -135 131 -135c62 0 113 23 166 60zM414 547h-76l-79 65l-79 -65h-76l99 144h112zM253 410c-48 0 -88 -39 -97 -117h193
c-8 75 -38 117 -96 117z" />
    <glyph glyph-name="Edieresis" unicode="&#xcb;" horiz-adv-x="521" 
d="M428 749h-115v115h115v-115zM239 749h-115v115h115v-115zM484 0h-411v690h401v-112h-270v-165h208l18 -111h-226v-190h280v-112z" />
    <glyph glyph-name="edieresis" unicode="&#xeb;" horiz-adv-x="502" 
d="M465 49c-52 -36 -115 -59 -193 -59c-135 0 -236 77 -236 251c0 157 94 252 220 252c145 0 210 -109 210 -246c0 -10 -1 -22 -1 -29h-311c6 -95 57 -135 131 -135c62 0 113 23 166 60zM253 410c-48 0 -88 -39 -97 -117h193c-8 75 -38 117 -96 117zM223 550h-115v115h115
v-115zM412 550h-115v115h115v-115z" />
    <glyph glyph-name="Edotaccent" unicode="&#x116;" horiz-adv-x="521" 
d="M484 0h-411v690h401v-112h-270v-165h208l18 -111h-226v-190h280v-112zM335 749h-118v115h118v-115z" />
    <glyph glyph-name="edotaccent" unicode="&#x117;" horiz-adv-x="502" 
d="M465 49c-52 -36 -115 -59 -193 -59c-135 0 -236 77 -236 251c0 157 94 252 220 252c145 0 210 -109 210 -246c0 -10 -1 -22 -1 -29h-311c6 -95 57 -135 131 -135c62 0 113 23 166 60zM253 410c-48 0 -88 -39 -97 -117h193c-8 75 -38 117 -96 117zM319 550h-118v115h118
v-115z" />
    <glyph glyph-name="Egrave" unicode="&#xc8;" horiz-adv-x="521" 
d="M484 0h-411v690h401v-112h-270v-165h208l18 -111h-226v-190h280v-112zM327 746h-79l-141 124l147 27z" />
    <glyph glyph-name="egrave" unicode="&#xe8;" horiz-adv-x="502" 
d="M465 49c-52 -36 -115 -59 -193 -59c-135 0 -236 77 -236 251c0 157 94 252 220 252c145 0 210 -109 210 -246c0 -10 -1 -22 -1 -29h-311c6 -95 57 -135 131 -135c62 0 113 23 166 60zM253 410c-48 0 -88 -39 -97 -117h193c-8 75 -38 117 -96 117zM310 547h-79l-141 124
l147 27z" />
    <glyph glyph-name="Emacron" unicode="&#x112;" horiz-adv-x="521" 
d="M484 0h-411v690h401v-112h-270v-165h208l18 -111h-226v-190h280v-112zM418 763h-284v88h284v-88z" />
    <glyph glyph-name="emacron" unicode="&#x113;" horiz-adv-x="502" 
d="M465 49c-52 -36 -115 -59 -193 -59c-135 0 -236 77 -236 251c0 157 94 252 220 252c145 0 210 -109 210 -246c0 -10 -1 -22 -1 -29h-311c6 -95 57 -135 131 -135c62 0 113 23 166 60zM402 564h-284v88h284v-88zM253 410c-48 0 -88 -39 -97 -117h193
c-8 75 -38 117 -96 117z" />
    <glyph glyph-name="Eogonek" unicode="&#x118;" horiz-adv-x="521" 
d="M484 0h-33l-15 -24c-19 -28 -29 -45 -29 -63c0 -21 13 -30 37 -30c14 0 27 2 42 6v-65c-26 -10 -56 -18 -87 -18c-53 0 -86 25 -86 76c0 34 18 70 57 118h-297v690h401v-112h-270v-165h208l18 -111h-226v-190h280v-112z" />
    <glyph glyph-name="eogonek" unicode="&#x119;" horiz-adv-x="502" 
d="M256 493c145 0 210 -109 210 -246c0 -7 -1 -26 -1 -29h-310c6 -94 56 -135 130 -135c62 0 113 23 166 60l13 -84l-58 -76c-22 -30 -33 -51 -33 -70c0 -21 12 -30 36 -30c14 0 27 2 42 6v-65c-25 -10 -56 -18 -87 -18c-52 0 -86 25 -86 76c0 33 19 68 56 115
c-18 -4 -40 -7 -62 -7c-135 0 -236 77 -236 251c0 157 94 252 220 252zM253 410c-48 0 -87 -38 -96 -117h192c-8 75 -38 117 -96 117z" />
    <glyph glyph-name="Gbreve" unicode="&#x11e;" horiz-adv-x="689" 
d="M627 57c-65 -42 -150 -70 -242 -70c-219 0 -339 144 -339 357c0 214 127 359 337 359c88 0 155 -22 210 -55l-19 -123c-52 37 -114 65 -190 65c-135 0 -203 -98 -203 -245c0 -148 70 -246 209 -246c48 0 82 10 116 28v153h-140l-16 106h277v-329zM518 882
c-13 -79 -61 -126 -151 -126c-85 0 -135 46 -149 126l72 13c13 -38 35 -57 79 -57c42 0 64 19 77 57z" />
    <glyph glyph-name="gbreve" unicode="&#x11f;" horiz-adv-x="519" 
d="M494 -20c0 -104 -114 -162 -254 -162c-131 0 -230 40 -230 120c0 46 31 80 91 113c-19 15 -28 33 -28 53c0 27 21 53 61 76c-57 27 -91 78 -91 142c0 105 86 171 194 171c55 0 102 -16 137 -45l118 42l16 -96l-88 -6c8 -19 13 -41 13 -63c0 -104 -89 -166 -193 -166
c-14 0 -28 0 -40 2c-12 -8 -19 -17 -19 -25c0 -16 15 -20 90 -31l62 -6c99 -14 161 -45 161 -119zM237 12c-33 4 -49 6 -72 11c-35 -24 -51 -47 -51 -72c0 -36 43 -62 134 -62c86 0 135 29 135 65c0 26 -21 41 -81 50zM393 673c-13 -79 -61 -126 -151 -126
c-85 0 -135 46 -149 126l72 13c13 -38 35 -57 79 -57c42 0 64 19 77 57zM323 325c0 52 -34 91 -85 91c-53 0 -84 -41 -84 -94c0 -50 32 -88 84 -88c53 0 85 39 85 91z" />
    <glyph glyph-name="gbreve.alt" horiz-adv-x="537" 
d="M476 19c0 -127 -72 -201 -226 -201c-72 0 -132 15 -184 36l18 99c47 -25 102 -41 160 -41c76 0 112 37 112 102v51c-32 -31 -76 -63 -137 -63c-102 0 -182 75 -182 233c0 171 96 254 241 254c75 0 138 -12 198 -32v-438zM356 168v209c-25 9 -42 14 -76 14
c-76 0 -123 -47 -123 -151c0 -89 39 -134 93 -134c40 0 75 26 106 62zM424 673c-13 -79 -61 -126 -151 -126c-85 0 -135 46 -149 126l72 13c13 -38 35 -57 79 -57c42 0 64 19 77 57z" />
    <glyph glyph-name="Gcommaaccent" unicode="&#x122;" horiz-adv-x="689" 
d="M296 -88l99 25c29 -28 43 -54 43 -88c0 -38 -21 -79 -80 -127l-74 16c36 44 49 73 49 101c0 26 -10 45 -37 73zM627 57c-65 -42 -150 -70 -242 -70c-219 0 -339 144 -339 357c0 214 127 359 337 359c88 0 155 -22 210 -55l-19 -123c-52 37 -114 65 -190 65
c-135 0 -203 -98 -203 -245c0 -148 70 -246 209 -246c48 0 82 10 116 28v153h-140l-16 106h277v-329z" />
    <glyph glyph-name="gcommaaccent" unicode="&#x123;" horiz-adv-x="519" 
d="M494 -20c0 -104 -114 -162 -254 -162c-131 0 -230 40 -230 120c0 46 31 80 91 113c-19 15 -28 33 -28 53c0 27 21 53 61 76c-57 27 -91 78 -91 142c0 105 86 171 194 171c55 0 102 -16 137 -45l118 42l16 -96l-88 -6c8 -19 13 -41 13 -63c0 -104 -89 -166 -193 -166
c-14 0 -28 0 -40 2c-12 -8 -19 -17 -19 -25c0 -16 15 -20 90 -31l62 -6c99 -14 161 -45 161 -119zM237 12c-33 4 -49 6 -72 11c-35 -24 -51 -47 -51 -72c0 -36 43 -62 134 -62c86 0 135 29 135 65c0 26 -21 41 -81 50zM323 325c0 52 -34 91 -85 91c-53 0 -84 -41 -84 -94
c0 -50 32 -88 84 -88c53 0 85 39 85 91zM308 566l-99 -25c-29 28 -43 54 -43 88c0 38 21 79 80 127l74 -16c-36 -44 -49 -73 -49 -101c0 -26 10 -45 37 -73z" />
    <glyph glyph-name="gcommaaccent.alt" horiz-adv-x="537" 
d="M340 566l-99 -25c-29 28 -43 54 -43 88c0 38 21 79 80 127l74 -16c-36 -44 -49 -73 -49 -101c0 -26 10 -45 37 -73zM476 19c0 -127 -72 -201 -226 -201c-72 0 -132 15 -184 36l18 99c47 -25 102 -41 160 -41c76 0 112 37 112 102v51c-32 -31 -76 -63 -137 -63
c-102 0 -182 75 -182 233c0 171 96 254 241 254c75 0 138 -12 198 -32v-438zM356 168v209c-25 9 -42 14 -76 14c-76 0 -123 -47 -123 -151c0 -89 39 -134 93 -134c40 0 75 26 106 62z" />
    <glyph glyph-name="Gdotaccent" unicode="&#x120;" horiz-adv-x="689" 
d="M627 57c-65 -42 -150 -70 -242 -70c-219 0 -339 144 -339 357c0 214 127 359 337 359c88 0 155 -22 210 -55l-19 -123c-52 37 -114 65 -190 65c-135 0 -203 -98 -203 -245c0 -148 70 -246 209 -246c48 0 82 10 116 28v153h-140l-16 106h277v-329zM427 759h-118v115h118
v-115z" />
    <glyph glyph-name="gdotaccent" unicode="&#x121;" horiz-adv-x="519" 
d="M494 -20c0 -104 -114 -162 -254 -162c-131 0 -230 40 -230 120c0 46 31 80 91 113c-19 15 -28 33 -28 53c0 27 21 53 61 76c-57 27 -91 78 -91 142c0 105 86 171 194 171c55 0 102 -16 137 -45l118 42l16 -96l-88 -6c8 -19 13 -41 13 -63c0 -104 -89 -166 -193 -166
c-14 0 -28 0 -40 2c-12 -8 -19 -17 -19 -25c0 -16 15 -20 90 -31l62 -6c99 -14 161 -45 161 -119zM237 12c-33 4 -49 6 -72 11c-35 -24 -51 -47 -51 -72c0 -36 43 -62 134 -62c86 0 135 29 135 65c0 26 -21 41 -81 50zM323 325c0 52 -34 91 -85 91c-53 0 -84 -41 -84 -94
c0 -50 32 -88 84 -88c53 0 85 39 85 91zM302 550h-118v115h118v-115z" />
    <glyph glyph-name="gdotaccent.alt" horiz-adv-x="537" 
d="M476 19c0 -127 -72 -201 -226 -201c-72 0 -132 15 -184 36l18 99c47 -25 102 -41 160 -41c76 0 112 37 112 102v51c-32 -31 -76 -63 -137 -63c-102 0 -182 75 -182 233c0 171 96 254 241 254c75 0 138 -12 198 -32v-438zM356 168v209c-25 9 -42 14 -76 14
c-76 0 -123 -47 -123 -151c0 -89 39 -134 93 -134c40 0 75 26 106 62zM333 550h-118v115h118v-115z" />
    <glyph glyph-name="Hbar" unicode="&#x126;" horiz-adv-x="752" 
d="M656 0h-133v293h-294v-293h-133v509h-74l-14 90h88v91h132v-91h295v91h133v-91h81v-90h-81v-509zM228 408h295v103h-295v-103z" />
    <glyph glyph-name="hbar" unicode="&#x127;" horiz-adv-x="532" 
d="M308 555h-127v-133c40 37 90 71 154 71c90 0 138 -55 138 -145v-348h-120v316c0 42 -18 71 -62 71c-38 0 -75 -24 -110 -61v-326h-120v555h-57l-14 83h71v65l120 19v-84h127v-83z" />
    <glyph glyph-name="Iacute" unicode="&#xcd;" horiz-adv-x="288" 
d="M211 0h-133v690h133v-690zM314 870l-140 -124h-79l74 151z" />
    <glyph glyph-name="iacute" unicode="&#xed;" horiz-adv-x="252" 
d="M296 671l-140 -124h-79l74 151zM186 0h-120v483h120v-483z" />
    <glyph glyph-name="Ibreve" unicode="&#x12c;" horiz-adv-x="288" 
d="M211 0h-133v690h133v-690zM295 872c-13 -79 -61 -126 -151 -126c-85 0 -135 46 -149 126l72 13c13 -38 35 -57 79 -57c42 0 64 19 77 57z" />
    <glyph glyph-name="ibreve" unicode="&#x12d;" horiz-adv-x="252" 
d="M186 0h-120v483h120v-483zM276 673c-13 -79 -61 -126 -151 -126c-85 0 -135 46 -149 126l72 13c13 -38 35 -57 79 -57c42 0 64 19 77 57z" />
    <glyph glyph-name="Icircumflex" unicode="&#xce;" horiz-adv-x="288" 
d="M211 0h-133v690h133v-690zM299 746h-76l-79 65l-79 -65h-76l99 144h112z" />
    <glyph glyph-name="icircumflex" unicode="&#xee;" horiz-adv-x="252" 
d="M281 547h-76l-79 65l-79 -65h-76l99 144h112zM186 0h-120v483h120v-483z" />
    <glyph glyph-name="Idieresis" unicode="&#xcf;" horiz-adv-x="288" 
d="M211 0h-133v690h133v-690zM297 749h-115v115h115v-115zM108 749h-115v115h115v-115z" />
    <glyph glyph-name="idieresis" unicode="&#xef;" horiz-adv-x="252" 
d="M278 550h-115v115h115v-115zM89 550h-115v115h115v-115zM186 0h-120v483h120v-483z" />
    <glyph glyph-name="Idotaccent" unicode="&#x130;" horiz-adv-x="288" 
d="M211 0h-133v690h133v-690zM204 749h-118v115h118v-115z" />
    <glyph glyph-name="dotlessi" unicode="&#x131;" horiz-adv-x="252" 
d="M186 0h-120v483h120v-483z" />
    <glyph glyph-name="Igrave" unicode="&#xcc;" horiz-adv-x="288" 
d="M211 0h-133v690h133v-690zM194 746h-79l-141 124l147 27z" />
    <glyph glyph-name="igrave" unicode="&#xec;" horiz-adv-x="252" 
d="M186 0h-120v483h120v-483zM176 547h-79l-141 124l147 27z" />
    <glyph glyph-name="Imacron" unicode="&#x12a;" horiz-adv-x="288" 
d="M211 0h-133v690h133v-690zM287 763h-284v88h284v-88z" />
    <glyph glyph-name="imacron" unicode="&#x12b;" horiz-adv-x="252" 
d="M186 0h-120v483h120v-483zM268 564h-284v88h284v-88z" />
    <glyph glyph-name="Iogonek" unicode="&#x12e;" horiz-adv-x="288" 
d="M211 0h-23l-15 -24c-19 -28 -29 -45 -29 -63c0 -21 13 -30 37 -30c14 0 27 2 42 6v-65c-26 -10 -56 -18 -87 -18c-53 0 -86 25 -86 76c0 34 18 70 57 118h-29v690h133v-690z" />
    <glyph glyph-name="iogonek" unicode="&#x12f;" horiz-adv-x="252" 
d="M186 0h-16l-15 -24c-19 -28 -29 -45 -29 -63c0 -21 13 -30 37 -30c14 0 27 2 42 6v-65c-26 -10 -56 -18 -87 -18c-53 0 -86 25 -86 76c0 34 18 70 57 118h-23v483h120v-483zM198 632c0 -40 -32 -68 -71 -68c-40 0 -72 28 -72 68c0 41 32 70 72 70c39 0 71 -29 71 -70z
" />
    <glyph glyph-name="Kcommaaccent" unicode="&#x136;" horiz-adv-x="629" 
d="M251 -76l99 25c29 -28 43 -54 43 -88c0 -38 -21 -79 -80 -127l-74 16c36 44 49 73 49 101c0 26 -10 45 -37 73zM626 18l-146 -25l-274 343v-336h-133v690h133v-303l249 303h159l-276 -323z" />
    <glyph glyph-name="kcommaaccent" unicode="&#x137;" horiz-adv-x="493" 
d="M187 -82l99 25c29 -28 43 -54 43 -88c0 -38 -21 -79 -80 -127l-74 16c36 44 49 73 49 101c0 26 -10 45 -37 73zM485 11l-128 -18l-176 247v-240h-120v703l120 19v-439l157 200h136l-178 -218z" />
    <glyph glyph-name="Lacute" unicode="&#x139;" horiz-adv-x="478" 
d="M331 871l-140 -124h-79l74 151zM454 0h-381v690h133v-572h230z" />
    <glyph glyph-name="lacute" unicode="&#x13a;" horiz-adv-x="252" 
d="M302 887l-140 -124h-79l74 151zM186 0h-120v703l120 19v-722z" />
    <glyph glyph-name="Lcaron" unicode="&#x13d;" horiz-adv-x="478" 
d="M378 700c10 -24 16 -48 16 -72c0 -47 -27 -93 -67 -130l-59 12c22 37 31 64 31 97c0 24 -9 50 -23 79zM454 0h-381v690h133v-572h230z" />
    <glyph glyph-name="lcaron" unicode="&#x13e;" horiz-adv-x="252" 
d="M339 722c10 -24 16 -48 16 -72c0 -47 -27 -93 -67 -130l-59 12c22 37 31 64 31 97c0 24 -9 50 -23 79zM186 0h-120v703l120 19v-722z" />
    <glyph glyph-name="Lcommaaccent" unicode="&#x13b;" horiz-adv-x="478" 
d="M188 -85l99 25c29 -28 43 -54 43 -88c0 -38 -21 -79 -80 -127l-74 16c36 44 49 73 49 101c0 26 -10 45 -37 73zM454 0h-381v690h133v-572h230z" />
    <glyph glyph-name="lcommaaccent" unicode="&#x13c;" horiz-adv-x="252" 
d="M54 -82l99 25c29 -28 43 -54 43 -88c0 -38 -21 -79 -80 -127l-74 16c36 44 49 73 49 101c0 26 -10 45 -37 73zM186 0h-120v703l120 19v-722z" />
    <glyph glyph-name="Ldot" unicode="&#x13f;" horiz-adv-x="478" 
d="M436 301h-113v115h113v-115zM454 0h-381v690h133v-572h230z" />
    <glyph glyph-name="ldot" unicode="&#x140;" horiz-adv-x="318" 
d="M186 0h-120v703l120 19v-722zM333 294h-95v126h95v-126z" />
    <glyph glyph-name="Lslash" unicode="&#x141;" horiz-adv-x="501" 
d="M370 393l-142 -78v-197h231l18 -118h-381v242l-70 -38l-17 108l87 47v331h132v-258l142 79v-118z" />
    <glyph glyph-name="lslash" unicode="&#x142;" horiz-adv-x="300" 
d="M209 0h-118v256l-67 -36l-18 108l85 45v330l118 19v-284l77 42v-118l-77 -42v-320z" />
    <glyph glyph-name="Nacute" unicode="&#x143;" horiz-adv-x="704" 
d="M521 864l-140 -124h-79l74 151zM631 0h-110l-325 475v-475h-123v690h125l310 -452v452h123v-690z" />
    <glyph glyph-name="nacute" unicode="&#x144;" horiz-adv-x="532" 
d="M437 671l-140 -124h-79l74 151zM473 0h-120v316c0 42 -18 71 -62 71c-38 0 -75 -24 -110 -61v-326h-120v483h102l11 -68c45 43 96 78 161 78c90 0 138 -55 138 -145v-348z" />
    <glyph glyph-name="Ncaron" unicode="&#x147;" horiz-adv-x="704" 
d="M196 884h76l79 -65l79 65h76l-99 -144h-112zM631 0h-110l-325 475v-475h-123v690h125l310 -452v452h123v-690z" />
    <glyph glyph-name="ncaron" unicode="&#x148;" horiz-adv-x="532" 
d="M113 691h76l79 -65l79 65h76l-99 -144h-112zM473 0h-120v316c0 42 -18 71 -62 71c-38 0 -75 -24 -110 -61v-326h-120v483h102l11 -68c45 43 96 78 161 78c90 0 138 -55 138 -145v-348z" />
    <glyph glyph-name="Ncommaaccent" unicode="&#x145;" horiz-adv-x="704" 
d="M279 -76l99 25c29 -28 43 -54 43 -88c0 -38 -21 -79 -80 -127l-74 16c36 44 49 73 49 101c0 26 -10 45 -37 73zM631 0h-110l-325 475v-475h-123v690h125l310 -452v452h123v-690z" />
    <glyph glyph-name="ncommaaccent" unicode="&#x146;" horiz-adv-x="532" 
d="M196 -82l99 25c29 -28 43 -54 43 -88c0 -38 -21 -79 -80 -127l-74 16c36 44 49 73 49 101c0 26 -10 45 -37 73zM473 0h-120v316c0 42 -18 71 -62 71c-38 0 -75 -24 -110 -61v-326h-120v483h102l11 -68c45 43 96 78 161 78c90 0 138 -55 138 -145v-348z" />
    <glyph glyph-name="Ntilde" unicode="&#xd1;" horiz-adv-x="704" 
d="M631 0h-110l-325 475v-475h-123v690h125l310 -452v452h123v-690zM516 868c-11 -89 -41 -126 -89 -126c-26 0 -43 8 -71 21c-38 18 -50 23 -65 23s-24 -10 -32 -48l-64 14c11 90 40 127 88 127c26 0 44 -8 71 -21c38 -19 50 -24 65 -24s24 11 32 48z" />
    <glyph glyph-name="ntilde" unicode="&#xf1;" horiz-adv-x="532" 
d="M473 0h-120v316c0 42 -18 71 -62 71c-38 0 -75 -24 -110 -61v-326h-120v483h102l11 -68c45 43 96 78 161 78c90 0 138 -55 138 -145v-348zM432 675c-11 -89 -41 -126 -89 -126c-26 0 -43 8 -71 21c-38 18 -50 23 -65 23s-24 -10 -32 -48l-64 14c11 90 40 127 88 127
c26 0 44 -8 71 -21c38 -19 50 -24 65 -24s24 11 32 48z" />
    <glyph glyph-name="Oacute" unicode="&#xd3;" horiz-adv-x="740" 
d="M539 880l-140 -124h-79l74 151zM694 346c0 -213 -127 -359 -325 -359c-196 0 -323 144 -323 357c0 214 128 359 325 359c198 0 323 -144 323 -357zM560 345c0 151 -72 248 -190 248s-189 -97 -189 -248s71 -248 189 -248c119 0 190 97 190 248z" />
    <glyph glyph-name="oacute" unicode="&#xf3;" horiz-adv-x="527" 
d="M432 671l-140 -124h-79l74 151zM491 241c0 -157 -97 -251 -229 -251c-131 0 -226 94 -226 251s96 252 227 252c132 0 228 -95 228 -252zM374 241c0 89 -40 154 -112 154c-71 0 -109 -64 -109 -154c0 -88 39 -153 109 -153c74 0 112 63 112 153z" />
    <glyph glyph-name="Obreve" unicode="&#x14e;" horiz-adv-x="740" 
d="M694 346c0 -213 -127 -359 -325 -359c-196 0 -323 144 -323 357c0 214 128 359 325 359c198 0 323 -144 323 -357zM560 345c0 151 -72 248 -190 248s-189 -97 -189 -248s71 -248 189 -248c119 0 190 97 190 248zM520 882c-13 -79 -61 -126 -151 -126
c-85 0 -135 46 -149 126l72 13c13 -38 35 -57 79 -57c42 0 64 19 77 57z" />
    <glyph glyph-name="obreve" unicode="&#x14f;" horiz-adv-x="527" 
d="M491 241c0 -157 -97 -251 -229 -251c-131 0 -226 94 -226 251s96 252 227 252c132 0 228 -95 228 -252zM374 241c0 89 -40 154 -112 154c-71 0 -109 -64 -109 -154c0 -88 39 -153 109 -153c74 0 112 63 112 153zM413 673c-13 -79 -61 -126 -151 -126
c-85 0 -135 46 -149 126l72 13c13 -38 35 -57 79 -57c42 0 64 19 77 57z" />
    <glyph glyph-name="Ocircumflex" unicode="&#xd4;" horiz-adv-x="740" 
d="M524 756h-76l-79 65l-79 -65h-76l99 144h112zM694 346c0 -213 -127 -359 -325 -359c-196 0 -323 144 -323 357c0 214 128 359 325 359c198 0 323 -144 323 -357zM560 345c0 151 -72 248 -190 248s-189 -97 -189 -248s71 -248 189 -248c119 0 190 97 190 248z" />
    <glyph glyph-name="ocircumflex" unicode="&#xf4;" horiz-adv-x="527" 
d="M417 547h-76l-79 65l-79 -65h-76l99 144h112zM491 241c0 -157 -97 -251 -229 -251c-131 0 -226 94 -226 251s96 252 227 252c132 0 228 -95 228 -252zM374 241c0 89 -40 154 -112 154c-71 0 -109 -64 -109 -154c0 -88 39 -153 109 -153c74 0 112 63 112 153z" />
    <glyph glyph-name="Odieresis" unicode="&#xd6;" horiz-adv-x="740" 
d="M522 759h-115v115h115v-115zM333 759h-115v115h115v-115zM694 346c0 -213 -127 -359 -325 -359c-196 0 -323 144 -323 357c0 214 128 359 325 359c198 0 323 -144 323 -357zM560 345c0 151 -72 248 -190 248s-189 -97 -189 -248s71 -248 189 -248c119 0 190 97 190 248z
" />
    <glyph glyph-name="odieresis" unicode="&#xf6;" horiz-adv-x="527" 
d="M415 550h-115v115h115v-115zM226 550h-115v115h115v-115zM491 241c0 -157 -97 -251 -229 -251c-131 0 -226 94 -226 251s96 252 227 252c132 0 228 -95 228 -252zM374 241c0 89 -40 154 -112 154c-71 0 -109 -64 -109 -154c0 -88 39 -153 109 -153c74 0 112 63 112 153z
" />
    <glyph glyph-name="Ograve" unicode="&#xd2;" horiz-adv-x="740" 
d="M694 346c0 -213 -127 -359 -325 -359c-196 0 -323 144 -323 357c0 214 128 359 325 359c198 0 323 -144 323 -357zM560 345c0 151 -72 248 -190 248s-189 -97 -189 -248s71 -248 189 -248c119 0 190 97 190 248zM419 756h-79l-141 124l147 27z" />
    <glyph glyph-name="ograve" unicode="&#xf2;" horiz-adv-x="527" 
d="M491 241c0 -157 -97 -251 -229 -251c-131 0 -226 94 -226 251s96 252 227 252c132 0 228 -95 228 -252zM374 241c0 89 -40 154 -112 154c-71 0 -109 -64 -109 -154c0 -88 39 -153 109 -153c74 0 112 63 112 153zM313 547h-79l-141 124l147 27z" />
    <glyph glyph-name="Ohungarumlaut" unicode="&#x150;" horiz-adv-x="740" 
d="M606 881l-131 -122h-74l74 148zM441 881l-131 -122h-74l75 148zM694 346c0 -213 -127 -359 -325 -359c-196 0 -323 144 -323 357c0 214 128 359 325 359c198 0 323 -144 323 -357zM560 345c0 151 -72 248 -190 248s-189 -97 -189 -248s71 -248 189 -248
c119 0 190 97 190 248z" />
    <glyph glyph-name="ohungarumlaut" unicode="&#x151;" horiz-adv-x="527" 
d="M498 672l-131 -122h-74l74 148zM333 672l-131 -122h-74l75 148zM491 241c0 -157 -97 -251 -229 -251c-131 0 -226 94 -226 251s96 252 227 252c132 0 228 -95 228 -252zM374 241c0 89 -40 154 -112 154c-71 0 -109 -64 -109 -154c0 -88 39 -153 109 -153
c74 0 112 63 112 153z" />
    <glyph glyph-name="Omacron" unicode="&#x14c;" horiz-adv-x="740" 
d="M512 773h-284v88h284v-88zM694 346c0 -213 -127 -359 -325 -359c-196 0 -323 144 -323 357c0 214 128 359 325 359c198 0 323 -144 323 -357zM560 345c0 151 -72 248 -190 248s-189 -97 -189 -248s71 -248 189 -248c119 0 190 97 190 248z" />
    <glyph glyph-name="omacron" unicode="&#x14d;" horiz-adv-x="527" 
d="M405 564h-284v88h284v-88zM491 241c0 -157 -97 -251 -229 -251c-131 0 -226 94 -226 251s96 252 227 252c132 0 228 -95 228 -252zM374 241c0 89 -40 154 -112 154c-71 0 -109 -64 -109 -154c0 -88 39 -153 109 -153c74 0 112 63 112 153z" />
    <glyph glyph-name="Oslash" unicode="&#xd8;" horiz-adv-x="740" 
d="M694 345c0 -213 -128 -358 -324 -358c-75 0 -140 22 -192 60l-46 -56l-94 20l79 97c-46 61 -71 142 -71 237c0 214 129 358 324 358c75 0 140 -22 192 -61l47 57l93 -20l-79 -97c45 -61 71 -143 71 -237zM370 597c-119 0 -191 -99 -191 -252c0 -55 9 -102 26 -141
l284 348c-31 29 -71 45 -119 45zM562 345c0 54 -9 102 -27 141l-284 -348c31 -29 71 -45 119 -45c120 0 192 99 192 252z" />
    <glyph glyph-name="oslash" unicode="&#xf8;" horiz-adv-x="527" 
d="M492 241c0 -157 -99 -251 -228 -251c-49 0 -94 13 -130 38l-33 -41l-77 17l59 73c-30 42 -47 97 -47 164c0 157 97 252 226 252c49 0 94 -14 131 -39l34 42l77 -17l-61 -74c31 -42 49 -98 49 -164zM263 399c-74 0 -113 -65 -113 -158c0 -29 4 -56 12 -79l168 212
c-17 16 -40 25 -67 25zM377 241c0 29 -5 56 -13 79l-168 -212c18 -16 40 -24 67 -24c74 0 114 65 114 157z" />
    <glyph glyph-name="Oslashacute" unicode="&#x1fe;" horiz-adv-x="740" 
d="M694 345c0 -213 -128 -358 -324 -358c-75 0 -140 22 -192 60l-46 -56l-94 20l79 97c-46 61 -71 142 -71 237c0 214 129 358 324 358c75 0 140 -22 192 -61l47 57l93 -20l-79 -97c45 -61 71 -143 71 -237zM370 597c-119 0 -191 -99 -191 -252c0 -55 9 -102 26 -141
l284 348c-31 29 -71 45 -119 45zM562 345c0 54 -9 102 -27 141l-284 -348c31 -29 71 -45 119 -45c120 0 192 99 192 252zM539 880l-140 -124h-79l74 151z" />
    <glyph glyph-name="oslashacute" unicode="&#x1ff;" horiz-adv-x="527" 
d="M492 241c0 -157 -99 -251 -228 -251c-49 0 -94 13 -130 38l-33 -41l-77 17l59 73c-30 42 -47 97 -47 164c0 157 97 252 226 252c49 0 94 -14 131 -39l34 42l77 -17l-61 -74c31 -42 49 -98 49 -164zM263 399c-74 0 -113 -65 -113 -158c0 -29 4 -56 12 -79l168 212
c-17 16 -40 25 -67 25zM377 241c0 29 -5 56 -13 79l-168 -212c18 -16 40 -24 67 -24c74 0 114 65 114 157zM432 671l-140 -124h-79l74 151z" />
    <glyph glyph-name="Otilde" unicode="&#xd5;" horiz-adv-x="740" 
d="M694 346c0 -213 -127 -359 -325 -359c-196 0 -323 144 -323 357c0 214 128 359 325 359c198 0 323 -144 323 -357zM560 345c0 151 -72 248 -190 248s-189 -97 -189 -248s71 -248 189 -248c119 0 190 97 190 248zM534 884c-11 -89 -41 -126 -89 -126c-26 0 -43 8 -71 21
c-38 18 -50 23 -65 23s-24 -10 -32 -48l-64 14c11 90 40 127 88 127c26 0 44 -8 71 -21c38 -19 50 -24 65 -24s24 11 32 48z" />
    <glyph glyph-name="otilde" unicode="&#xf5;" horiz-adv-x="527" 
d="M491 241c0 -157 -97 -251 -229 -251c-131 0 -226 94 -226 251s96 252 227 252c132 0 228 -95 228 -252zM374 241c0 89 -40 154 -112 154c-71 0 -109 -64 -109 -154c0 -88 39 -153 109 -153c74 0 112 63 112 153zM427 675c-11 -89 -41 -126 -89 -126c-26 0 -43 8 -71 21
c-38 18 -50 23 -65 23s-24 -10 -32 -48l-64 14c11 90 40 127 88 127c26 0 44 -8 71 -21c38 -19 50 -24 65 -24s24 11 32 48z" />
    <glyph glyph-name="Racute" unicode="&#x154;" horiz-adv-x="593" 
d="M459 870l-140 -124h-79l74 151zM581 18l-140 -25l-180 271h-56v-264h-132v690h214c154 0 247 -73 247 -207c0 -101 -54 -164 -140 -194zM404 476c0 69 -44 108 -127 108h-73v-219h67c82 0 133 39 133 111z" />
    <glyph glyph-name="racute" unicode="&#x155;" horiz-adv-x="367" 
d="M358 671l-140 -124h-79l74 151zM352 374c-75 -5 -137 -45 -171 -97v-277h-120v483h102l15 -97c32 56 80 103 155 107z" />
    <glyph glyph-name="Rcaron" unicode="&#x158;" horiz-adv-x="593" 
d="M135 890h76l79 -65l79 65h76l-99 -144h-112zM581 18l-140 -25l-180 271h-56v-264h-132v690h214c154 0 247 -73 247 -207c0 -101 -54 -164 -140 -194zM404 476c0 69 -44 108 -127 108h-73v-219h67c82 0 133 39 133 111z" />
    <glyph glyph-name="rcaron" unicode="&#x159;" horiz-adv-x="367" 
d="M35 691h76l79 -65l79 65h76l-99 -144h-112zM352 374c-75 -5 -137 -45 -171 -97v-277h-120v483h102l15 -97c32 56 80 103 155 107z" />
    <glyph glyph-name="Rcommaaccent" unicode="&#x156;" horiz-adv-x="593" 
d="M227 -76l99 25c29 -28 43 -54 43 -88c0 -38 -21 -79 -80 -127l-74 16c36 44 49 73 49 101c0 26 -10 45 -37 73zM581 18l-140 -25l-180 271h-56v-264h-132v690h214c154 0 247 -73 247 -207c0 -101 -54 -164 -140 -194zM404 476c0 69 -44 108 -127 108h-73v-219h67
c82 0 133 39 133 111z" />
    <glyph glyph-name="rcommaaccent" unicode="&#x157;" horiz-adv-x="367" 
d="M62 -82l99 25c29 -28 43 -54 43 -88c0 -38 -21 -79 -80 -127l-74 16c36 44 49 73 49 101c0 26 -10 45 -37 73zM352 374c-75 -5 -137 -45 -171 -97v-277h-120v483h102l15 -97c32 56 80 103 155 107z" />
    <glyph glyph-name="Sacute" unicode="&#x15a;" horiz-adv-x="533" 
d="M445 880l-140 -124h-79l74 151zM493 197c0 -135 -99 -205 -232 -205c-84 0 -156 19 -217 48l20 121c58 -34 130 -61 199 -61c61 0 103 29 103 84c0 51 -24 72 -124 115c-134 55 -188 99 -188 206c0 122 94 193 223 193c78 0 132 -16 182 -42l-20 -120
c-50 33 -109 54 -163 54c-66 0 -95 -32 -95 -74c0 -44 22 -65 118 -105c142 -58 194 -107 194 -214z" />
    <glyph glyph-name="sacute" unicode="&#x15b;" horiz-adv-x="453" 
d="M404 671l-140 -124h-79l74 151zM419 142c0 -95 -68 -152 -195 -152c-70 0 -142 22 -188 47l16 100c52 -34 116 -57 176 -57c52 0 80 19 80 51c0 34 -21 48 -98 67c-117 30 -166 64 -166 152c0 84 66 143 178 143c63 0 121 -13 169 -34l-16 -100c-48 27 -105 44 -153 44
c-45 0 -67 -18 -67 -44s18 -41 90 -60c125 -32 174 -66 174 -157z" />
    <glyph glyph-name="Scaron" unicode="&#x160;" horiz-adv-x="533" 
d="M120 900h76l79 -65l79 65h76l-99 -144h-112zM493 197c0 -135 -99 -205 -232 -205c-84 0 -156 19 -217 48l20 121c58 -34 130 -61 199 -61c61 0 103 29 103 84c0 51 -24 72 -124 115c-134 55 -188 99 -188 206c0 122 94 193 223 193c78 0 132 -16 182 -42l-20 -120
c-50 33 -109 54 -163 54c-66 0 -95 -32 -95 -74c0 -44 22 -65 118 -105c142 -58 194 -107 194 -214z" />
    <glyph glyph-name="scaron" unicode="&#x161;" horiz-adv-x="453" 
d="M80 691h76l79 -65l79 65h76l-99 -144h-112zM419 142c0 -95 -68 -152 -195 -152c-70 0 -142 22 -188 47l16 100c52 -34 116 -57 176 -57c52 0 80 19 80 51c0 34 -21 48 -98 67c-117 30 -166 64 -166 152c0 84 66 143 178 143c63 0 121 -13 169 -34l-16 -100
c-48 27 -105 44 -153 44c-45 0 -67 -18 -67 -44s18 -41 90 -60c125 -32 174 -66 174 -157z" />
    <glyph glyph-name="Scedilla" unicode="&#x15e;" horiz-adv-x="533" 
d="M493 197c0 -135 -99 -205 -232 -205c-84 0 -156 19 -217 48l20 121c58 -34 130 -61 199 -61c61 0 103 29 103 84c0 51 -24 72 -124 115c-134 55 -188 99 -188 206c0 122 94 193 223 193c78 0 132 -16 182 -42l-20 -120c-50 33 -109 54 -163 54c-66 0 -95 -32 -95 -74
c0 -44 22 -65 118 -105c142 -58 194 -107 194 -214zM356 -91l-131 -107h-79l65 135z" />
    <glyph glyph-name="scedilla" unicode="&#x15f;" horiz-adv-x="453" 
d="M419 142c0 -95 -68 -152 -195 -152c-70 0 -142 22 -188 47l16 100c52 -34 116 -57 176 -57c52 0 80 19 80 51c0 34 -21 48 -98 67c-117 30 -166 64 -166 152c0 84 66 143 178 143c63 0 121 -13 169 -34l-16 -100c-48 27 -105 44 -153 44c-45 0 -67 -18 -67 -44
s18 -41 90 -60c125 -32 174 -66 174 -157zM316 -85l-131 -107h-79l65 135z" />
    <glyph glyph-name="Scommaaccent" unicode="&#x218;" horiz-adv-x="533" 
d="M203 -88l99 25c29 -28 43 -54 43 -88c0 -38 -21 -79 -80 -127l-74 16c36 44 49 73 49 101c0 26 -10 45 -37 73zM493 197c0 -135 -99 -205 -232 -205c-84 0 -156 19 -217 48l20 121c58 -34 130 -61 199 -61c61 0 103 29 103 84c0 51 -24 72 -124 115
c-134 55 -188 99 -188 206c0 122 94 193 223 193c78 0 132 -16 182 -42l-20 -120c-50 33 -109 54 -163 54c-66 0 -95 -32 -95 -74c0 -44 22 -65 118 -105c142 -58 194 -107 194 -214z" />
    <glyph glyph-name="scommaaccent" unicode="&#x219;" horiz-adv-x="453" 
d="M163 -82l99 25c29 -28 43 -54 43 -88c0 -38 -21 -79 -80 -127l-74 16c36 44 49 73 49 101c0 26 -10 45 -37 73zM419 142c0 -95 -68 -152 -195 -152c-70 0 -142 22 -188 47l16 100c52 -34 116 -57 176 -57c52 0 80 19 80 51c0 34 -21 48 -98 67c-117 30 -166 64 -166 152
c0 84 66 143 178 143c63 0 121 -13 169 -34l-16 -100c-48 27 -105 44 -153 44c-45 0 -67 -18 -67 -44s18 -41 90 -60c125 -32 174 -66 174 -157z" />
    <glyph glyph-name="Tcaron" unicode="&#x164;" horiz-adv-x="605" 
d="M149 890h76l79 -65l79 65h76l-99 -144h-112zM584 575h-215v-575h-132v575h-208v115h536z" />
    <glyph glyph-name="tcaron" unicode="&#x165;" horiz-adv-x="350" 
d="M364 737c10 -24 16 -48 16 -72c0 -47 -27 -93 -67 -130l-59 12c22 37 31 64 31 97c0 24 -9 50 -23 79zM321 0c-19 -4 -41 -8 -76 -8c-95 0 -159 35 -159 145v248h-68v98h68v153l118 18v-171h99l15 -98h-114v-228c0 -39 18 -60 64 -60c14 0 27 1 38 4z" />
    <glyph glyph-name="Tcommaaccent" unicode="&#x162;" horiz-adv-x="605" 
d="M232 -85l99 25c29 -28 43 -54 43 -88c0 -38 -21 -79 -80 -127l-74 16c36 44 49 73 49 101c0 26 -10 45 -37 73zM584 575h-215v-575h-132v575h-208v115h536z" />
    <glyph glyph-name="Tcommaaccent" unicode="&#x21a;" horiz-adv-x="605" 
d="M232 -85l99 25c29 -28 43 -54 43 -88c0 -38 -21 -79 -80 -127l-74 16c36 44 49 73 49 101c0 26 -10 45 -37 73zM584 575h-215v-575h-132v575h-208v115h536z" />
    <glyph glyph-name="tcommaaccent" unicode="&#x163;" horiz-adv-x="350" 
d="M123 -82l99 25c29 -28 43 -54 43 -88c0 -38 -21 -79 -80 -127l-74 16c36 44 49 73 49 101c0 26 -10 45 -37 73zM321 0c-19 -4 -41 -8 -76 -8c-95 0 -159 35 -159 145v248h-68v98h68v153l118 18v-171h99l15 -98h-114v-228c0 -39 18 -60 64 -60c14 0 27 1 38 4z" />
    <glyph glyph-name="tcommaaccent" unicode="&#x21b;" horiz-adv-x="350" 
d="M123 -82l99 25c29 -28 43 -54 43 -88c0 -38 -21 -79 -80 -127l-74 16c36 44 49 73 49 101c0 26 -10 45 -37 73zM321 0c-19 -4 -41 -8 -76 -8c-95 0 -159 35 -159 145v248h-68v98h68v153l118 18v-171h99l15 -98h-114v-228c0 -39 18 -60 64 -60c14 0 27 1 38 4z" />
    <glyph glyph-name="Uacute" unicode="&#xda;" horiz-adv-x="688" 
d="M512 864l-140 -124h-79l74 151zM623 270c0 -183 -114 -282 -281 -282s-276 99 -276 279v423h132v-416c0 -105 48 -171 145 -171c98 0 147 62 147 168v419h133v-420z" />
    <glyph glyph-name="uacute" unicode="&#xfa;" horiz-adv-x="532" 
d="M434 671l-140 -124h-79l74 151zM471 0h-102l-11 68c-45 -43 -97 -78 -161 -78c-91 0 -138 55 -138 146v347h120v-316c0 -42 18 -70 61 -70c38 0 76 24 111 60v326h120v-483z" />
    <glyph glyph-name="Uacute.alt" 
d="M515 864l-140 -124h-79l74 151zM513 0l-12 71c-65 -47 -132 -79 -212 -79c-134 0 -220 67 -220 225v473h132v-454c0 -85 37 -128 116 -128c60 0 117 28 173 74v508h133v-690h-110z" />
    <glyph glyph-name="Ubreve" unicode="&#x16c;" horiz-adv-x="688" 
d="M623 270c0 -183 -114 -282 -281 -282s-276 99 -276 279v423h132v-416c0 -105 48 -171 145 -171c98 0 147 62 147 168v419h133v-420zM493 860c-13 -79 -61 -126 -151 -126c-85 0 -135 46 -149 126l72 13c13 -38 35 -57 79 -57c42 0 64 19 77 57z" />
    <glyph glyph-name="ubreve" unicode="&#x16d;" horiz-adv-x="532" 
d="M471 0h-102l-11 68c-45 -43 -97 -78 -161 -78c-91 0 -138 55 -138 146v347h120v-316c0 -42 18 -70 61 -70c38 0 76 24 111 60v326h120v-483zM414 673c-13 -79 -61 -126 -151 -126c-85 0 -135 46 -149 126l72 13c13 -38 35 -57 79 -57c42 0 64 19 77 57z" />
    <glyph glyph-name="Ubreve.alt" 
d="M513 0l-12 71c-65 -47 -132 -79 -212 -79c-134 0 -220 67 -220 225v473h132v-454c0 -85 37 -128 116 -128c60 0 117 28 173 74v508h133v-690h-110zM496 860c-13 -79 -61 -126 -151 -126c-85 0 -135 46 -149 126l72 13c13 -38 35 -57 79 -57c42 0 64 19 77 57z" />
    <glyph glyph-name="Ucircumflex" unicode="&#xdb;" horiz-adv-x="688" 
d="M498 740h-76l-79 65l-79 -65h-76l99 144h112zM623 270c0 -183 -114 -282 -281 -282s-276 99 -276 279v423h132v-416c0 -105 48 -171 145 -171c98 0 147 62 147 168v419h133v-420z" />
    <glyph glyph-name="ucircumflex" unicode="&#xfb;" horiz-adv-x="532" 
d="M419 547h-76l-79 65l-79 -65h-76l99 144h112zM471 0h-102l-11 68c-45 -43 -97 -78 -161 -78c-91 0 -138 55 -138 146v347h120v-316c0 -42 18 -70 61 -70c38 0 76 24 111 60v326h120v-483z" />
    <glyph glyph-name="Ucircumflex.alt" 
d="M501 740h-76l-79 65l-79 -65h-76l99 144h112zM513 0l-12 71c-65 -47 -132 -79 -212 -79c-134 0 -220 67 -220 225v473h132v-454c0 -85 37 -128 116 -128c60 0 117 28 173 74v508h133v-690h-110z" />
    <glyph glyph-name="Udieresis" unicode="&#xdc;" horiz-adv-x="688" 
d="M495 743h-115v115h115v-115zM306 743h-115v115h115v-115zM623 270c0 -183 -114 -282 -281 -282s-276 99 -276 279v423h132v-416c0 -105 48 -171 145 -171c98 0 147 62 147 168v419h133v-420z" />
    <glyph glyph-name="udieresis" unicode="&#xfc;" horiz-adv-x="532" 
d="M416 550h-115v115h115v-115zM227 550h-115v115h115v-115zM471 0h-102l-11 68c-45 -43 -97 -78 -161 -78c-91 0 -138 55 -138 146v347h120v-316c0 -42 18 -70 61 -70c38 0 76 24 111 60v326h120v-483z" />
    <glyph glyph-name="Udieresis.alt" 
d="M498 743h-115v115h115v-115zM309 743h-115v115h115v-115zM513 0l-12 71c-65 -47 -132 -79 -212 -79c-134 0 -220 67 -220 225v473h132v-454c0 -85 37 -128 116 -128c60 0 117 28 173 74v508h133v-690h-110z" />
    <glyph glyph-name="Ugrave" unicode="&#xd9;" horiz-adv-x="688" 
d="M623 270c0 -183 -114 -282 -281 -282s-276 99 -276 279v423h132v-416c0 -105 48 -171 145 -171c98 0 147 62 147 168v419h133v-420zM393 740h-79l-141 124l147 27z" />
    <glyph glyph-name="ugrave" unicode="&#xf9;" horiz-adv-x="532" 
d="M471 0h-102l-11 68c-45 -43 -97 -78 -161 -78c-91 0 -138 55 -138 146v347h120v-316c0 -42 18 -70 61 -70c38 0 76 24 111 60v326h120v-483zM315 547h-79l-141 124l147 27z" />
    <glyph glyph-name="Ugrave.alt" 
d="M395 740h-79l-141 124l147 27zM513 0l-12 71c-65 -47 -132 -79 -212 -79c-134 0 -220 67 -220 225v473h132v-454c0 -85 37 -128 116 -128c60 0 117 28 173 74v508h133v-690h-110z" />
    <glyph glyph-name="Uhungarumlaut" unicode="&#x170;" horiz-adv-x="688" 
d="M623 270c0 -183 -114 -282 -281 -282s-276 99 -276 279v423h132v-416c0 -105 48 -171 145 -171c98 0 147 62 147 168v419h133v-420zM579 865l-131 -122h-74l74 148zM414 865l-131 -122h-74l75 148z" />
    <glyph glyph-name="uhungarumlaut" unicode="&#x171;" horiz-adv-x="532" 
d="M471 0h-102l-11 68c-45 -43 -97 -78 -161 -78c-91 0 -138 55 -138 146v347h120v-316c0 -42 18 -70 61 -70c38 0 76 24 111 60v326h120v-483zM500 672l-131 -122h-74l74 148zM335 672l-131 -122h-74l75 148z" />
    <glyph glyph-name="Uhungarumlaut.alt" 
d="M582 865l-131 -122h-74l74 148zM417 865l-131 -122h-74l75 148zM513 0l-12 71c-65 -47 -132 -79 -212 -79c-134 0 -220 67 -220 225v473h132v-454c0 -85 37 -128 116 -128c60 0 117 28 173 74v508h133v-690h-110z" />
    <glyph glyph-name="Umacron" unicode="&#x16a;" horiz-adv-x="688" 
d="M623 270c0 -183 -114 -282 -281 -282s-276 99 -276 279v423h132v-416c0 -105 48 -171 145 -171c98 0 147 62 147 168v419h133v-420zM485 757h-284v88h284v-88z" />
    <glyph glyph-name="umacron" unicode="&#x16b;" horiz-adv-x="532" 
d="M471 0h-102l-11 68c-45 -43 -97 -78 -161 -78c-91 0 -138 55 -138 146v347h120v-316c0 -42 18 -70 61 -70c38 0 76 24 111 60v326h120v-483zM406 564h-284v88h284v-88z" />
    <glyph glyph-name="Umacron.alt" 
d="M488 757h-284v88h284v-88zM513 0l-12 71c-65 -47 -132 -79 -212 -79c-134 0 -220 67 -220 225v473h132v-454c0 -85 37 -128 116 -128c60 0 117 28 173 74v508h133v-690h-110z" />
    <glyph glyph-name="Uogonek" unicode="&#x172;" horiz-adv-x="688" 
d="M623 270c0 -165 -93 -262 -234 -279l-9 -15c-19 -28 -29 -45 -29 -63c0 -21 13 -30 37 -30c14 0 27 2 42 6v-65c-26 -10 -56 -18 -87 -18c-53 0 -86 25 -86 76c0 31 15 65 49 108c-147 13 -240 110 -240 277v423h132v-416c0 -105 48 -171 145 -171c98 0 147 62 147 168
v419h133v-420z" />
    <glyph glyph-name="uogonek" unicode="&#x173;" horiz-adv-x="532" 
d="M471 0h-21l-15 -24c-19 -28 -29 -45 -29 -63c0 -21 13 -30 37 -30c14 0 27 2 42 6v-65c-26 -10 -56 -18 -87 -18c-53 0 -86 25 -86 76c0 34 18 70 57 118l-11 68c-45 -43 -97 -78 -161 -78c-91 0 -138 55 -138 146v347h120v-316c0 -42 18 -70 61 -70c38 0 76 24 111 60
v326h120v-483z" />
    <glyph glyph-name="Uogonek.alt" 
d="M453 -118c0 34 19 71 59 120l-11 69c-65 -47 -132 -79 -212 -79c-134 0 -220 67 -220 225v473h132v-454c0 -85 37 -128 116 -128c60 0 117 28 173 74v508h133v-690h-32l-15 -24c-19 -28 -29 -45 -29 -63c0 -21 13 -30 37 -30c14 0 27 2 42 6v-65c-26 -10 -56 -18 -87 -18
c-53 0 -86 25 -86 76z" />
    <glyph glyph-name="Uring" unicode="&#x16e;" horiz-adv-x="688" 
d="M461 833c0 -60 -45 -105 -118 -105s-118 45 -118 105c0 59 45 106 118 106s118 -47 118 -106zM397 833c0 32 -22 59 -54 59s-54 -27 -54 -59c0 -33 22 -59 54 -59s54 26 54 59zM623 270c0 -183 -114 -282 -281 -282s-276 99 -276 279v423h132v-416
c0 -105 48 -171 145 -171c98 0 147 62 147 168v419h133v-420z" />
    <glyph glyph-name="uring" unicode="&#x16f;" horiz-adv-x="532" 
d="M382 647c0 -60 -45 -105 -118 -105s-118 45 -118 105c0 59 45 106 118 106s118 -47 118 -106zM318 647c0 32 -22 59 -54 59s-54 -27 -54 -59c0 -33 22 -59 54 -59s54 26 54 59zM471 0h-102l-11 68c-45 -43 -97 -78 -161 -78c-91 0 -138 55 -138 146v347h120v-316
c0 -42 18 -70 61 -70c38 0 76 24 111 60v326h120v-483z" />
    <glyph glyph-name="Uring.alt" 
d="M464 833c0 -60 -45 -105 -118 -105s-118 45 -118 105c0 59 45 106 118 106s118 -47 118 -106zM400 833c0 32 -22 59 -54 59s-54 -27 -54 -59c0 -33 22 -59 54 -59s54 26 54 59zM513 0l-12 71c-65 -47 -132 -79 -212 -79c-134 0 -220 67 -220 225v473h132v-454
c0 -85 37 -128 116 -128c60 0 117 28 173 74v508h133v-690h-110z" />
    <glyph glyph-name="Wacute" unicode="&#x1e82;" horiz-adv-x="1003" 
d="M677 870l-140 -124h-79l74 151zM977 690l-198 -692h-126l-153 504l-153 -504h-125l-193 674l140 25l128 -494l144 487h133l144 -487l125 487h134z" />
    <glyph glyph-name="wacute" unicode="&#x1e83;" horiz-adv-x="723" 
d="M535 671l-140 -124h-79l74 151zM704 483l-144 -484h-110l-89 319l-87 -319h-110l-144 475l122 16l85 -327l87 320h106l87 -319l83 319h114z" />
    <glyph glyph-name="Wacute.alt" horiz-adv-x="1015" 
d="M993 690l-236 -693h-128l-124 345l-124 -345h-125l-234 676l139 25l170 -526l118 329l-60 173l138 24l171 -526l159 518h136zM676 870l-140 -124h-79l74 151z" />
    <glyph glyph-name="Wcircumflex" unicode="&#x174;" horiz-adv-x="1003" 
d="M662 746h-76l-79 65l-79 -65h-76l99 144h112zM977 690l-198 -692h-126l-153 504l-153 -504h-125l-193 674l140 25l128 -494l144 487h133l144 -487l125 487h134z" />
    <glyph glyph-name="wcircumflex" unicode="&#x175;" horiz-adv-x="723" 
d="M520 547h-76l-79 65l-79 -65h-76l99 144h112zM704 483l-144 -484h-110l-89 319l-87 -319h-110l-144 475l122 16l85 -327l87 320h106l87 -319l83 319h114z" />
    <glyph glyph-name="Wcircumflex.alt" horiz-adv-x="1015" 
d="M993 690l-236 -693h-128l-124 345l-124 -345h-125l-234 676l139 25l170 -526l118 329l-60 173l138 24l171 -526l159 518h136zM661 746h-76l-79 65l-79 -65h-76l99 144h112z" />
    <glyph glyph-name="Wdieresis" unicode="&#x1e84;" horiz-adv-x="1003" 
d="M659 749h-115v115h115v-115zM470 749h-115v115h115v-115zM977 690l-198 -692h-126l-153 504l-153 -504h-125l-193 674l140 25l128 -494l144 487h133l144 -487l125 487h134z" />
    <glyph glyph-name="wdieresis" unicode="&#x1e85;" horiz-adv-x="723" 
d="M518 550h-115v115h115v-115zM329 550h-115v115h115v-115zM704 483l-144 -484h-110l-89 319l-87 -319h-110l-144 475l122 16l85 -327l87 320h106l87 -319l83 319h114z" />
    <glyph glyph-name="Wdieresis.alt" horiz-adv-x="1015" 
d="M993 690l-236 -693h-128l-124 345l-124 -345h-125l-234 676l139 25l170 -526l118 329l-60 173l138 24l171 -526l159 518h136zM470 749h-115v115h115v-115zM659 749h-115v115h115v-115z" />
    <glyph glyph-name="Wgrave" unicode="&#x1e80;" horiz-adv-x="1003" 
d="M977 690l-198 -692h-126l-153 504l-153 -504h-125l-193 674l140 25l128 -494l144 487h133l144 -487l125 487h134zM557 746h-79l-141 124l147 27z" />
    <glyph glyph-name="wgrave" unicode="&#x1e81;" horiz-adv-x="723" 
d="M704 483l-144 -484h-110l-89 319l-87 -319h-110l-144 475l122 16l85 -327l87 320h106l87 -319l83 319h114zM415 547h-79l-141 124l147 27z" />
    <glyph glyph-name="Wgrave.alt" horiz-adv-x="1015" 
d="M993 690l-236 -693h-128l-124 345l-124 -345h-125l-234 676l139 25l170 -526l118 329l-60 173l138 24l171 -526l159 518h136zM556 746h-79l-141 124l147 27z" />
    <glyph glyph-name="Yacute" unicode="&#xdd;" horiz-adv-x="653" 
d="M641 690l-249 -426v-264h-133v263l-241 412l138 22l173 -311l168 304h144zM499 864l-140 -124h-79l74 151z" />
    <glyph glyph-name="yacute" unicode="&#xfd;" horiz-adv-x="496" 
d="M481 483l-185 -514c-41 -116 -97 -151 -184 -151c-26 0 -38 2 -49 5l-16 101c15 -4 32 -7 53 -7c38 0 66 16 85 61l7 20l-175 476l125 16l112 -343l106 336h121zM423 671l-140 -124h-79l74 151z" />
    <glyph glyph-name="Ycircumflex" unicode="&#x176;" horiz-adv-x="653" 
d="M641 690l-249 -426v-264h-133v263l-241 412l138 22l173 -311l168 304h144zM484 740h-76l-79 65l-79 -65h-76l99 144h112z" />
    <glyph glyph-name="ycircumflex" unicode="&#x177;" horiz-adv-x="496" 
d="M481 483l-185 -514c-41 -116 -97 -151 -184 -151c-26 0 -38 2 -49 5l-16 101c15 -4 32 -7 53 -7c38 0 66 16 85 61l7 20l-175 476l125 16l112 -343l106 336h121zM408 547h-76l-79 65l-79 -65h-76l99 144h112z" />
    <glyph glyph-name="Ydieresis" unicode="&#x178;" horiz-adv-x="653" 
d="M641 690l-249 -426v-264h-133v263l-241 412l138 22l173 -311l168 304h144zM482 743h-115v115h115v-115zM293 743h-115v115h115v-115z" />
    <glyph glyph-name="ydieresis" unicode="&#xff;" horiz-adv-x="496" 
d="M481 483l-185 -514c-41 -116 -97 -151 -184 -151c-26 0 -38 2 -49 5l-16 101c15 -4 32 -7 53 -7c38 0 66 16 85 61l7 20l-175 476l125 16l112 -343l106 336h121zM406 550h-115v115h115v-115zM217 550h-115v115h115v-115z" />
    <glyph glyph-name="Ygrave" unicode="&#x1ef2;" horiz-adv-x="653" 
d="M641 690l-249 -426v-264h-133v263l-241 412l138 22l173 -311l168 304h144zM379 740h-79l-141 124l147 27z" />
    <glyph glyph-name="ygrave" unicode="&#x1ef3;" horiz-adv-x="496" 
d="M481 483l-185 -514c-41 -116 -97 -151 -184 -151c-26 0 -38 2 -49 5l-16 101c15 -4 32 -7 53 -7c38 0 66 16 85 61l7 20l-175 476l125 16l112 -343l106 336h121zM304 547h-79l-141 124l147 27z" />
    <glyph glyph-name="Zacute" unicode="&#x179;" horiz-adv-x="603" 
d="M474 870l-140 -124h-79l74 151zM568 0h-527v97l357 484h-325l-17 109h503v-97l-357 -484h349z" />
    <glyph glyph-name="zacute" unicode="&#x17a;" horiz-adv-x="460" 
d="M400 671l-140 -124h-79l74 151zM430 0h-399v92l242 295h-217l-15 96h377v-92l-242 -295h238z" />
    <glyph glyph-name="Zcaron" unicode="&#x17d;" horiz-adv-x="603" 
d="M150 890h76l79 -65l79 65h76l-99 -144h-112zM568 0h-527v97l357 484h-325l-17 109h503v-97l-357 -484h349z" />
    <glyph glyph-name="zcaron" unicode="&#x17e;" horiz-adv-x="460" 
d="M75 691h76l79 -65l79 65h76l-99 -144h-112zM430 0h-399v92l242 295h-217l-15 96h377v-92l-242 -295h238z" />
    <glyph glyph-name="Zdotaccent" unicode="&#x17b;" horiz-adv-x="603" 
d="M568 0h-527v97l357 484h-325l-17 109h503v-97l-357 -484h349zM364 749h-118v115h118v-115z" />
    <glyph glyph-name="zdotaccent" unicode="&#x17c;" horiz-adv-x="460" 
d="M430 0h-399v92l242 295h-217l-15 96h377v-92l-242 -295h238zM289 550h-118v115h118v-115z" />
    <glyph glyph-name="AE" unicode="&#xc6;" horiz-adv-x="896" 
d="M2 0l374 690h473v-112h-271v-165h209l17 -111h-226v-190h281v-112h-407v175h-218l-94 -175h-138zM289 283h163v310z" />
    <glyph glyph-name="ae" unicode="&#xe6;" horiz-adv-x="785" 
d="M748 247c0 -7 0 -26 -1 -29h-309c6 -94 56 -135 130 -135c61 0 113 23 166 60l14 -94c-52 -36 -115 -59 -193 -59c-75 0 -140 24 -183 75c-50 -44 -109 -75 -183 -75c-89 0 -155 45 -155 134c0 112 90 167 285 186v15c0 52 -24 72 -77 72c-56 0 -109 -16 -161 -39l-15 96
c56 22 115 39 185 39c80 0 122 -19 149 -66c34 42 82 66 143 66c141 0 205 -109 205 -246zM632 293c-8 75 -38 117 -95 117c-49 0 -88 -38 -97 -117h192zM334 133c-9 31 -16 66 -16 106v1c-133 -18 -165 -58 -165 -102c0 -37 26 -57 66 -57s77 17 115 52z" />
    <glyph glyph-name="AEacute" unicode="&#x1fc;" horiz-adv-x="896" 
d="M2 0l374 690h473v-112h-271v-165h209l17 -111h-226v-190h281v-112h-407v175h-218l-94 -175h-138zM289 283h163v310zM684 870l-140 -124h-79l74 151z" />
    <glyph glyph-name="aeacute" unicode="&#x1fd;" horiz-adv-x="785" 
d="M565 671l-140 -124h-79l74 151zM748 247c0 -7 0 -26 -1 -29h-309c6 -94 56 -135 130 -135c61 0 113 23 166 60l14 -94c-52 -36 -115 -59 -193 -59c-75 0 -140 24 -183 75c-50 -44 -109 -75 -183 -75c-89 0 -155 45 -155 134c0 112 90 167 285 186v15c0 52 -24 72 -77 72
c-56 0 -109 -16 -161 -39l-15 96c56 22 115 39 185 39c80 0 122 -19 149 -66c34 42 82 66 143 66c141 0 205 -109 205 -246zM632 293c-8 75 -38 117 -95 117c-49 0 -88 -38 -97 -117h192zM334 133c-9 31 -16 66 -16 106v1c-133 -18 -165 -58 -165 -102c0 -37 26 -57 66 -57
s77 17 115 52z" />
    <glyph glyph-name="OE" unicode="&#x152;" horiz-adv-x="892" 
d="M855 0h-443c-240 0 -364 141 -364 344c0 205 129 346 364 346h433v-112h-269v-165h208l17 -111h-225v-190h279v-112zM446 109v472h-32c-144 0 -232 -74 -232 -236c0 -158 93 -236 231 -236h33z" />
    <glyph glyph-name="oe" unicode="&#x153;" horiz-adv-x="841" 
d="M804 247c0 -7 -1 -26 -2 -29h-309c6 -94 56 -135 130 -135c61 0 113 23 166 60l14 -94c-52 -36 -111 -59 -190 -59c-87 0 -146 33 -182 90c-36 -55 -90 -90 -172 -90c-127 0 -223 94 -223 251s96 252 225 252c82 0 139 -35 172 -90c35 55 90 90 164 90
c142 0 207 -109 207 -246zM687 293c-8 75 -38 117 -95 117c-49 0 -88 -38 -97 -117h192zM374 241c0 89 -40 153 -112 153c-71 0 -109 -63 -109 -153c0 -88 39 -153 109 -153c74 0 112 63 112 153z" />
    <glyph glyph-name="Eth" unicode="&#xd0;" horiz-adv-x="727" 
d="M679 346c0 -205 -129 -346 -364 -346h-219v301h-69l-18 114h87v275h219c240 0 364 -141 364 -344zM545 345c0 159 -93 236 -231 236h-87v-168h143v-111h-143v-193h86c144 0 232 74 232 236z" />
    <glyph glyph-name="eth" unicode="&#xf0;" horiz-adv-x="539" 
d="M263 505h-84l56 83c-29 15 -63 28 -99 38l15 96c53 -13 100 -30 142 -52l35 52l82 -16l-54 -75c92 -70 144 -176 144 -326c0 -115 -32 -199 -85 -254c-42 -43 -93 -61 -157 -61c-127 0 -222 85 -222 229c0 137 85 235 197 235c57 0 103 -19 143 -50
c-13 62 -42 109 -82 144zM265 85c73 0 119 78 119 208v15c-35 31 -80 51 -123 51c-65 0 -107 -54 -107 -140c0 -81 43 -134 111 -134z" />
    <glyph glyph-name="Thorn" unicode="&#xde;" horiz-adv-x="562" 
d="M528 359c0 -149 -106 -224 -264 -224h-59v-135h-132v690h132v-119h70c157 0 253 -73 253 -212zM398 356c0 72 -45 109 -130 109h-63v-224h58c85 0 135 36 135 115z" />
    <glyph glyph-name="thorn" unicode="&#xfe;" horiz-adv-x="541" 
d="M504 255c0 -180 -100 -260 -211 -260c-46 0 -83 8 -112 19v-182l-120 -18v889l120 19v-298c33 35 77 69 141 69c101 0 182 -76 182 -238zM383 248c0 93 -39 139 -93 139c-43 0 -77 -27 -109 -68v-207c29 -14 52 -21 91 -21c65 0 111 51 111 157z" />
    <glyph glyph-name="schwa" unicode="&#x259;" horiz-adv-x="502" 
d="M37 434c52 37 115 59 193 59c136 0 236 -76 236 -251c0 -157 -93 -252 -220 -252c-145 0 -210 109 -210 246c0 10 1 22 1 29h310c-5 94 -55 136 -130 136c-61 0 -113 -24 -166 -60zM249 74c49 0 88 38 97 116h-193c8 -75 38 -116 96 -116z" />
    <glyph glyph-name="germandbls" unicode="&#xdf;" horiz-adv-x="613" 
d="M584 152c0 -103 -68 -161 -175 -161c-51 0 -104 15 -145 37l16 99c40 -26 83 -42 123 -42c41 0 67 23 67 64c0 40 -25 86 -178 125l-13 84c43 59 72 119 72 180c0 53 -26 83 -70 83c-47 0 -73 -34 -73 -89v-532h-120v385h-69v98h69v38c0 127 73 195 193 195
c122 0 188 -65 188 -170c0 -79 -39 -137 -89 -196c137 -38 204 -97 204 -198z" />
    <glyph glyph-name="zero" unicode="0" horiz-adv-x="627" 
d="M583 338c0 -225 -108 -351 -269 -351c-162 0 -270 126 -270 351s108 351 270 351c161 0 269 -126 269 -351zM454 338c0 160 -49 248 -140 248s-142 -88 -142 -248s51 -248 142 -248s140 88 140 248z" />
    <glyph glyph-name="one" unicode="1" horiz-adv-x="382" 
d="M300 0h-128v552l-138 -53l-14 101l167 77h113v-677z" />
    <glyph glyph-name="two" unicode="2" horiz-adv-x="543" 
d="M501 0h-459v94l242 247c52 55 78 93 78 142c0 62 -38 94 -105 94c-66 0 -127 -31 -182 -75l-16 114c53 41 123 72 212 72c136 0 218 -74 218 -192c0 -88 -40 -145 -123 -227l-163 -163h282z" />
    <glyph glyph-name="three" unicode="3" horiz-adv-x="529" 
d="M488 187c0 -125 -101 -200 -248 -200c-79 0 -154 21 -208 53l18 109c56 -35 116 -55 185 -55c77 0 125 34 125 97c0 68 -45 107 -157 107h-44l-17 104h61c100 0 145 35 145 96c0 50 -37 84 -112 84c-67 0 -126 -23 -177 -60l-16 105c52 37 120 62 207 62
c151 0 226 -79 226 -177c0 -87 -50 -134 -122 -159c85 -25 134 -75 134 -166z" />
    <glyph glyph-name="three.alt" horiz-adv-x="529" 
d="M487 201c0 -129 -94 -214 -245 -214c-80 0 -156 21 -209 53l18 110c57 -36 117 -56 183 -56c79 0 127 39 127 107c0 72 -59 104 -164 104h-45l-14 83l179 181h-258l-17 107h430v-96l-188 -187c121 -14 203 -68 203 -192z" />
    <glyph glyph-name="four" unicode="4" horiz-adv-x="599" 
d="M577 144h-101v-144h-120v144h-326v85l300 448h146v-440h101v-93zM356 237v310l-208 -310h208z" />
    <glyph glyph-name="four.alt" horiz-adv-x="599" 
d="M577 144h-101v-144h-118v144h-328v89l302 449l115 -26l-286 -417h197v160l118 25v-185h101v-95z" />
    <glyph glyph-name="five" unicode="5" horiz-adv-x="541" 
d="M502 219c0 -150 -110 -232 -260 -232c-84 0 -150 20 -204 49l19 112c51 -31 114 -53 186 -53c78 0 137 39 137 118c0 67 -44 108 -124 108c-45 0 -77 -8 -105 -20l-86 19l24 356h377l17 -108h-293l-12 -158c25 7 57 14 102 14c134 0 222 -77 222 -205z" />
    <glyph glyph-name="six" unicode="6" horiz-adv-x="570" 
d="M437 583c-132 -31 -238 -93 -269 -213c48 32 102 52 168 52c117 0 200 -74 200 -206c0 -136 -103 -229 -242 -229c-147 0 -251 99 -251 286c0 238 159 368 378 417zM296 323c-49 0 -94 -18 -135 -49c1 -120 55 -187 135 -187c70 0 118 46 118 122c0 73 -37 114 -118 114z
" />
    <glyph glyph-name="seven" unicode="7" horiz-adv-x="535" 
d="M494 577l-261 -584l-123 24l248 549h-310l-16 110h462v-99z" />
    <glyph glyph-name="eight" unicode="8" horiz-adv-x="578" 
d="M40 175c0 75 50 136 129 178c-71 39 -105 89 -105 159c0 108 96 177 229 177c140 0 223 -72 223 -173c0 -69 -43 -120 -108 -159c84 -40 130 -90 130 -179c0 -106 -95 -191 -249 -191c-163 0 -249 86 -249 188zM160 184c0 -60 55 -103 131 -103c74 0 125 42 125 98
c0 62 -38 90 -156 134c-60 -31 -100 -76 -100 -129zM182 514c0 -52 35 -81 133 -119c51 30 83 69 83 115c0 52 -42 89 -109 89c-66 0 -107 -37 -107 -85z" />
    <glyph glyph-name="nine" unicode="9" horiz-adv-x="570" 
d="M124 93c135 27 240 87 275 203c-48 -31 -101 -50 -162 -50c-122 0 -203 73 -203 210c0 140 103 233 241 233c148 0 252 -99 252 -286c0 -238 -161 -372 -387 -417zM274 344c49 0 93 16 135 48v4c0 125 -55 193 -135 193c-70 0 -118 -46 -118 -126c0 -77 38 -119 118 -119
z" />
    <glyph glyph-name="period" unicode="." horiz-adv-x="243" 
d="M187 0h-131v146h131v-146z" />
    <glyph glyph-name="comma" unicode="," horiz-adv-x="243" 
d="M208 146l-114 -287l-69 17l46 270h137z" />
    <glyph glyph-name="comma.alt" horiz-adv-x="243" 
d="M62 146h124c7 -24 11 -48 11 -71c0 -72 -33 -144 -111 -219l-67 30c40 66 56 122 56 174c0 29 -5 57 -13 86z" />
    <glyph glyph-name="colon" unicode=":" horiz-adv-x="252" 
d="M191 339h-131v144h131v-144zM191 0h-131v145h131v-145z" />
    <glyph glyph-name="semicolon" unicode=";" horiz-adv-x="252" 
d="M198 339h-131v144h131v-144zM205 145l-114 -286l-70 17l47 269h137z" />
    <glyph glyph-name="semicolon.alt" horiz-adv-x="252" 
d="M194 339h-132v144h132v-144zM62 145h124c7 -24 11 -48 11 -71c0 -71 -33 -143 -111 -218l-67 30c40 66 56 122 56 174c0 29 -5 57 -13 85z" />
    <glyph glyph-name="ellipsis" unicode="&#x2026;" horiz-adv-x="752" 
d="M691 0h-130v145h130v-145zM441 0h-130v145h130v-145zM192 0h-130v145h130v-145z" />
    <glyph glyph-name="periodcentered" unicode="&#xb7;" horiz-adv-x="243" 
d="M187 214h-131v146h131v-146z" />
    <glyph glyph-name="bullet" unicode="&#x2022;" horiz-adv-x="451" 
d="M377 345l-21 -140l-130 -21l-129 21l-23 140l23 140l129 20l130 -20z" />
    <glyph glyph-name="ampersand" unicode="&#x26;" horiz-adv-x="672" 
d="M678 16l-133 -22l-79 82c-56 -57 -126 -89 -209 -89c-139 0 -226 70 -226 191c0 96 59 162 145 206c-42 49 -61 88 -61 149c0 92 69 170 195 170c72 0 132 -18 178 -42l-19 -117c-54 32 -104 51 -151 51c-52 0 -78 -28 -78 -67c0 -34 17 -60 55 -100l165 -178
c17 43 30 95 39 157l105 -23c-13 -84 -36 -155 -69 -215zM268 88c47 0 93 18 131 60l-157 167c-57 -33 -87 -75 -87 -126c0 -59 44 -101 113 -101z" />
    <glyph glyph-name="exclam" unicode="!" horiz-adv-x="284" 
d="M216 690l-36 -452l-75 -17l-37 469h148zM207 0h-131v146h131v-146z" />
    <glyph glyph-name="exclamdown" unicode="&#xa1;" horiz-adv-x="284" 
d="M207 544h-131v146h131v-146zM216 0h-148l36 452l75 17z" />
    <glyph glyph-name="question" unicode="?" horiz-adv-x="512" 
d="M289 0h-132v146h132v-146zM271 303l-6 -69l-73 -16l-12 159l31 12c96 34 134 65 134 121c0 51 -40 81 -100 81c-71 0 -136 -32 -193 -76l-17 116c60 43 132 72 223 72c131 0 214 -69 214 -184c0 -112 -72 -169 -201 -216z" />
    <glyph glyph-name="questiondown" unicode="&#xbf;" horiz-adv-x="512" 
d="M223 690h132v-146h-132v146zM241 387l6 69l73 16l12 -159l-31 -12c-96 -37 -134 -65 -134 -121c0 -51 40 -81 100 -81c71 0 136 32 193 76l17 -116c-60 -43 -132 -72 -223 -72c-131 0 -214 69 -214 184c0 112 72 169 201 216z" />
    <glyph glyph-name="quotedblleft" unicode="&#x201c;" horiz-adv-x="445" 
d="M194 682l-25 -258h-136l91 274zM398 682l-26 -258h-135l91 274z" />
    <glyph glyph-name="quotedblright" unicode="&#x201d;" horiz-adv-x="445" 
d="M208 690l-91 -274l-70 17l26 257h135zM412 690l-91 -274l-70 17l25 257h136z" />
    <glyph glyph-name="quotedblleft.alt" horiz-adv-x="442" 
d="M179 424h-122c-7 27 -11 53 -11 79c0 68 27 134 87 199l65 -30c-22 -48 -33 -99 -33 -149c0 -34 5 -67 14 -99zM381 424h-121c-8 27 -12 53 -12 79c0 68 27 134 87 199l65 -30c-22 -48 -33 -99 -33 -149c0 -34 5 -67 14 -99z" />
    <glyph glyph-name="quotedblright.alt" horiz-adv-x="442" 
d="M61 690h122c7 -26 11 -52 11 -78c0 -68 -27 -135 -87 -200l-65 30c22 48 33 100 33 150c0 33 -5 66 -14 98zM264 690h121c8 -26 12 -52 12 -78c0 -68 -27 -135 -88 -200l-65 30c22 48 33 100 33 150c0 33 -4 66 -13 98z" />
    <glyph glyph-name="quoteleft" unicode="&#x2018;" horiz-adv-x="243" 
d="M195 682l-25 -258h-137l91 274z" />
    <glyph glyph-name="quoteright" unicode="&#x2019;" horiz-adv-x="243" 
d="M210 690l-92 -274l-71 17l26 257h137z" />
    <glyph glyph-name="quoteleft.alt" horiz-adv-x="240" 
d="M182 424h-121c-8 27 -12 53 -12 79c0 68 27 134 87 199l65 -30c-22 -48 -33 -99 -33 -149c0 -34 5 -67 14 -99z" />
    <glyph glyph-name="quoteright.alt" horiz-adv-x="240" 
d="M61 690h122c7 -26 11 -52 11 -78c0 -68 -27 -135 -87 -200l-65 30c22 48 33 100 33 150c0 33 -5 66 -14 98z" />
    <glyph glyph-name="quotedblbase" unicode="&#x201e;" horiz-adv-x="445" 
d="M202 146l-91 -274l-70 16l25 258h136zM406 146l-92 -274l-69 16l25 258h136z" />
    <glyph glyph-name="quotesinglbase" unicode="&#x201a;" horiz-adv-x="243" 
d="M203 146l-91 -274l-71 16l25 258h137z" />
    <glyph glyph-name="quotedblbase.alt" horiz-adv-x="445" 
d="M55 146h121c8 -27 12 -53 12 -79c0 -68 -27 -134 -87 -199l-65 30c22 48 33 99 33 149c0 34 -5 67 -14 99zM257 146h122c7 -27 11 -53 11 -79c0 -68 -27 -134 -87 -199l-65 30c22 48 33 99 33 149c0 34 -5 67 -14 99z" />
    <glyph glyph-name="quotesinglbase.alt" horiz-adv-x="243" 
d="M55 146h121c8 -27 12 -53 12 -79c0 -68 -27 -134 -87 -199l-65 30c22 48 33 99 33 149c0 34 -5 67 -14 99z" />
    <glyph glyph-name="guillemotleft" unicode="&#xab;" horiz-adv-x="549" 
d="M287 483l-127 -241l121 -230l-85 -19l-168 249l164 241h95zM508 483l-127 -241l121 -230l-85 -19l-168 249l164 241h95z" />
    <glyph glyph-name="guillemotright" unicode="&#xbb;" horiz-adv-x="549" 
d="M521 241l-164 -241h-95l127 241l-121 231l85 18zM300 241l-164 -241h-95l127 241l-121 231l85 18z" />
    <glyph glyph-name="guilsinglleft" unicode="&#x2039;" horiz-adv-x="328" 
d="M287 483l-127 -241l121 -230l-85 -19l-168 249l164 241h95z" />
    <glyph glyph-name="guilsinglright" unicode="&#x203a;" horiz-adv-x="328" 
d="M300 241l-164 -241h-96l128 241l-122 231l86 18z" />
    <glyph glyph-name="hyphen" unicode="-" horiz-adv-x="354" 
d="M307 230h-260v115h260v-115z" />
    <glyph glyph-name="endash" unicode="&#x2013;" horiz-adv-x="454" 
d="M406 231h-358v112h358v-112z" />
    <glyph glyph-name="emdash" unicode="&#x2014;" horiz-adv-x="908" 
d="M860 232h-812v110h812v-110z" />
    <glyph glyph-name="underscore" unicode="_" horiz-adv-x="454" 
d="M456 -104h-458v70h458v-70z" />
    <glyph glyph-name="slash" unicode="/" horiz-adv-x="533" 
d="M517 677l-451 -804l-103 22l451 804z" />
    <glyph glyph-name="backslash" unicode="\" horiz-adv-x="533" 
d="M570 -106l-103 -22l-451 804l102 22z" />
    <glyph glyph-name="bar" unicode="|" horiz-adv-x="283" 
d="M193 -170l-103 -16v892l103 16v-892z" />
    <glyph glyph-name="parenleft" unicode="(" horiz-adv-x="397" 
d="M376 -71l-101 -23c-136 112 -220 229 -220 405c0 186 98 320 275 415l14 -93c-106 -84 -158 -183 -158 -322c0 -142 58 -254 190 -382z" />
    <glyph glyph-name="parenright" unicode=")" horiz-adv-x="397" 
d="M21 699l101 23c136 -112 221 -229 221 -405c0 -186 -99 -320 -276 -415l-14 93c106 84 158 183 158 322c0 142 -57 254 -190 382z" />
    <glyph glyph-name="bracketleft" unicode="[" horiz-adv-x="414" 
d="M374 -104h-295v794h289v-81h-174v-632h167z" />
    <glyph glyph-name="bracketright" unicode="]" horiz-adv-x="414" 
d="M38 690h296v-794h-289v81h174v632h-167z" />
    <glyph glyph-name="braceleft" unicode="{" horiz-adv-x="491" 
d="M452 -104h-137c-100 0 -150 49 -150 131c0 46 14 89 14 135c0 69 -42 92 -103 92h-31l-12 79h44c61 0 102 23 102 91c0 46 -14 89 -14 135c0 83 50 131 150 131h131v-81h-97c-46 0 -66 -21 -66 -59c0 -40 13 -84 13 -128c0 -79 -41 -113 -108 -128v-2
c67 -14 108 -49 108 -128c0 -43 -13 -88 -13 -128c0 -37 19 -59 65 -59h90z" />
    <glyph glyph-name="braceright" unicode="}" horiz-adv-x="491" 
d="M39 690h136c101 0 150 -49 150 -131c0 -46 -13 -89 -13 -135c0 -69 41 -92 102 -92h31l13 -79h-44c-62 0 -102 -23 -102 -91c0 -46 13 -89 13 -135c0 -83 -49 -131 -150 -131h-131v81h97c46 0 67 21 67 59c0 40 -14 84 -14 128c0 79 41 113 108 128v2
c-67 14 -108 49 -108 128c0 43 14 88 14 128c0 37 -20 59 -66 59h-90z" />
    <glyph glyph-name="at" unicode="@" horiz-adv-x="835" 
d="M602 43c-67 0 -119 33 -134 90c-53 -63 -93 -90 -143 -90c-58 0 -107 42 -107 126c0 171 116 289 238 289c53 0 105 -12 151 -30l-38 -215c-2 -14 -6 -37 -6 -55c0 -35 20 -59 63 -59c70 0 120 76 120 208c0 196 -123 291 -289 291c-198 0 -368 -175 -368 -410
c0 -206 123 -293 292 -293c83 0 155 18 215 49l6 -36c-56 -28 -134 -48 -225 -48c-204 0 -332 114 -332 327c0 241 184 447 416 447c197 0 328 -123 328 -326c0 -157 -73 -265 -187 -265zM363 128c26 0 56 23 104 81l30 161c-16 5 -29 7 -50 7c-63 0 -128 -80 -128 -189
c0 -44 17 -60 44 -60z" />
    <glyph glyph-name="copyright" unicode="&#xa9;" horiz-adv-x="799" 
d="M745 346c0 -213 -142 -359 -346 -359c-205 0 -345 144 -345 357c0 214 142 359 346 359c205 0 345 -144 345 -357zM701 345c0 207 -132 322 -301 322c-172 0 -302 -115 -302 -322s132 -322 302 -322c171 0 301 115 301 322zM541 181c-38 -23 -80 -37 -126 -37
c-119 0 -195 82 -195 204c0 121 79 204 194 204c47 0 85 -12 120 -31l-13 -83c-36 26 -67 37 -103 37c-66 0 -106 -51 -106 -127c0 -77 43 -126 109 -126c34 0 68 11 107 37z" />
    <glyph glyph-name="published" unicode="&#x2117;" horiz-adv-x="799" 
d="M745 346c0 -213 -142 -359 -346 -359c-205 0 -345 144 -345 357c0 214 142 359 346 359c205 0 345 -144 345 -357zM701 345c0 207 -132 322 -301 322c-172 0 -302 -115 -302 -322s132 -322 302 -322c171 0 301 115 301 322zM559 417c0 -86 -61 -132 -155 -132h-36v-135
h-88v394h130c91 0 149 -47 149 -127zM473 415c0 38 -25 60 -70 60h-35v-121h34c44 0 71 21 71 61z" />
    <glyph glyph-name="registered.alt" horiz-adv-x="799" 
d="M745 346c0 -213 -142 -359 -346 -359c-205 0 -345 144 -345 357c0 214 142 359 346 359c205 0 345 -144 345 -357zM701 345c0 207 -132 322 -301 322c-172 0 -302 -115 -302 -322s132 -322 302 -322c171 0 301 115 301 322zM487 150l-100 144h-33v-139h-87v394h128
c93 0 151 -46 151 -125c0 -54 -28 -91 -72 -111l106 -145zM354 480v-120h36c45 0 70 21 70 60c0 37 -24 60 -69 60h-37z" />
    <glyph glyph-name="registered" unicode="&#xae;" horiz-adv-x="563" 
d="M508 470c0 -138 -95 -232 -227 -232c-134 0 -226 93 -226 232c0 138 94 233 227 233s226 -94 226 -233zM476 470c0 132 -87 206 -194 206c-109 0 -195 -74 -195 -206c0 -131 87 -205 194 -205c109 0 195 74 195 205zM399 357l-60 -10l-68 101h-19v-98h-57v257h88
c59 0 95 -28 95 -78c0 -37 -20 -60 -49 -71zM321 525c0 23 -15 36 -42 36h-27v-73h26c27 0 43 12 43 37z" />
    <glyph glyph-name="servicemark" unicode="&#x2120;" horiz-adv-x="806" 
d="M757 345h-77l-17 231l-81 -232h-67l-81 232l-17 -231h-70l27 345h95l85 -242l84 242h93zM172 340c-40 0 -76 10 -107 26l10 69c33 -20 67 -34 99 -34c27 0 45 14 45 35c0 24 -14 36 -53 53c-69 30 -97 52 -97 108c0 60 48 98 114 98c38 0 66 -8 92 -22l-11 -68
c-29 18 -57 29 -83 29c-27 0 -42 -14 -42 -31c0 -21 11 -32 50 -49c73 -30 100 -54 100 -112c0 -66 -49 -102 -117 -102z" />
    <glyph glyph-name="servicemark.alt" horiz-adv-x="810" 
d="M172 340c-40 0 -76 10 -107 26l10 69c33 -20 67 -34 99 -34c27 0 45 14 45 35c0 24 -14 36 -53 53c-69 30 -97 52 -97 108c0 60 48 98 114 98c38 0 66 -8 92 -22l-11 -68c-29 18 -57 29 -83 29c-27 0 -42 -14 -42 -31c0 -21 11 -32 50 -49c73 -30 100 -54 100 -112
c0 -66 -49 -102 -117 -102zM750 345h-74v240l-92 -243h-66l-90 243v-240h-71v345h102l95 -250l94 250h102v-345z" />
    <glyph glyph-name="trademark" unicode="&#x2122;" horiz-adv-x="806" 
d="M762 345h-78l-16 231l-82 -232h-66l-82 232l-17 -231h-69l26 345h96l84 -242l85 242h92zM324 626h-111v-281h-77v281h-105v64h283z" />
    <glyph glyph-name="trademark.alt" horiz-adv-x="813" 
d="M761 345h-73v240l-91 -243h-66l-91 243v-240h-71v345h102l96 -250l92 250h102v-345zM324 626h-111v-281h-77v281h-105v64h283z" />
    <glyph glyph-name="asterisk" unicode="*" horiz-adv-x="419" 
d="M383 557l-108 -60l53 -113l-29 -19l-90 84l-90 -84l-28 19l52 113l-107 60l10 32l123 -13l22 119h36l22 -119l123 13z" />
    <glyph glyph-name="dagger" unicode="&#x2020;" horiz-adv-x="506" 
d="M306 611l-36 -135h-35l-35 135v79h106v-79zM463 386h-35l-135 34v33l135 35h35v-102zM213 420l-136 -34h-35v102h35l136 -35v-33zM299 14l-31 -128h-31l-30 128v265l28 119h35l29 -119v-265z" />
    <glyph glyph-name="daggerdbl" unicode="&#x2021;" horiz-adv-x="524" 
d="M315 611l-36 -135h-34l-36 135v79h106v-79zM472 388h-35l-135 32v33l135 33h35v-98zM222 420l-135 -32h-36v98h36l135 -33v-33zM311 230l-32 -119h-34l-32 119v49l32 119h34l32 -119v-49zM472 23h-35l-135 32v33l135 33h35v-98zM222 55l-135 -32h-36v98h36l135 -33v-33z
M315 -182h-106v79l36 136h34l36 -136v-79z" />
    <glyph glyph-name="asciicircum" unicode="^" horiz-adv-x="454" 
d="M382 547h-76l-79 65l-79 -65h-76l99 144h112z" />
    <glyph glyph-name="asciitilde" unicode="~" horiz-adv-x="409" 
d="M365 346c-11 -89 -41 -127 -89 -127c-25 0 -44 8 -71 21c-38 19 -50 24 -65 24s-24 -11 -32 -48l-64 14c10 90 40 126 89 126c25 0 43 -8 70 -21c39 -18 50 -23 66 -23c14 0 23 11 32 48z" />
    <glyph glyph-name="dollar" unicode="$" horiz-adv-x="538" 
d="M369 739l-11 -66c43 -8 80 -21 112 -37l-17 -103c-33 20 -72 36 -114 45l-28 -182c125 -41 185 -93 185 -202c0 -129 -92 -198 -237 -198h-5l-18 -118l-69 15l16 108c-56 9 -107 26 -148 47l16 103c50 -28 99 -47 152 -56l31 207c-121 41 -182 85 -182 192
c0 120 87 186 225 186h10l12 75zM387 183c0 43 -19 73 -93 100l-30 -192h3c80 0 120 33 120 92zM160 507c0 -43 21 -66 91 -91l26 170h-13c-70 0 -104 -30 -104 -79z" />
    <glyph glyph-name="sterling" unicode="&#xa3;" horiz-adv-x="543" 
d="M46 386h96l40 126c39 124 105 177 223 177c39 0 70 -5 96 -12l-16 -109c-24 7 -46 10 -75 10c-59 0 -91 -28 -115 -102l-29 -90h149l17 -103h-198l-56 -178h309l18 -105h-459v85l63 198h-63v103z" />
    <glyph glyph-name="Euro" unicode="&#x20ac;" horiz-adv-x="600" 
d="M26 384v74h93c34 137 128 230 274 230c70 0 125 -17 171 -45l-18 -110c-46 31 -87 49 -146 49c-75 0 -129 -46 -153 -124h212l12 -74h-237c-1 -15 -1 -31 -1 -46c0 -13 0 -27 1 -39h231v-74h-219c24 -85 79 -130 161 -130c55 0 102 18 150 50l18 -105
c-51 -31 -110 -52 -182 -52c-153 0 -247 90 -277 237h-84l-11 74h85c-1 12 -1 25 -1 38c0 16 0 31 2 47h-81z" />
    <glyph glyph-name="yen" unicode="&#xa5;" horiz-adv-x="624" 
d="M86 224v72h141l-211 365l132 22l166 -311l160 304h135l-220 -380h136l11 -72h-165v-71h160v-72h-160v-81h-125v81h-154l-11 72h165v71h-160z" />
    <glyph glyph-name="cent" unicode="&#xa2;" horiz-adv-x="488" 
d="M445 138c-50 -33 -101 -47 -163 -47l-16 -101l-70 16l15 92c-103 25 -169 110 -169 238c0 160 104 248 241 248h3l16 101l70 -15l-15 -93c34 -7 61 -18 84 -32l-15 -103c-28 19 -56 32 -88 39l-45 -292c47 0 88 10 139 45zM156 337c0 -73 27 -118 75 -137l44 286
c-75 -4 -119 -55 -119 -149z" />
    <glyph glyph-name="florin" unicode="&#x192;" horiz-adv-x="413" 
d="M348 455v-100h-109l-56 -355h-125l55 355h-71l15 100h72l12 74c18 113 74 155 183 155c25 0 46 -1 62 -3v-102c-12 1 -30 3 -47 3c-45 0 -67 -21 -75 -73l-9 -54h93z" />
    <glyph glyph-name="numbersign" unicode="#" horiz-adv-x="667" 
d="M544 666l-23 -147h106v-101h-122l-25 -160h113l16 -101h-145l-25 -159h-84l26 159h-153l-26 -165l-80 18l23 147h-106v101h122l26 160h-113l-17 101h146l25 159h83l-26 -159h153l26 165zM269 420l-26 -164h154l25 164h-153z" />
    <glyph glyph-name="paragraph" unicode="&#xb6;" horiz-adv-x="543" 
d="M467 0h-85v608h-68v-154l-35 -210c-149 6 -244 77 -244 218c0 136 94 214 247 214h185v-676z" />
    <glyph glyph-name="section" unicode="&#xa7;" horiz-adv-x="548" 
d="M509 362c0 -37 -14 -72 -31 -97l-91 16c9 17 17 37 17 54c0 31 -19 45 -88 61l-65 15c-95 22 -153 53 -153 135c0 84 72 138 172 138c65 0 114 -9 163 -29l-15 -91c-46 22 -96 35 -144 35c-43 0 -64 -19 -64 -44c0 -26 20 -38 68 -49l89 -21c102 -24 142 -56 142 -123z
M38 314c0 37 15 72 32 97l91 -16c-10 -17 -17 -37 -17 -54c0 -31 18 -45 87 -61l66 -15c95 -22 153 -53 153 -135c0 -84 -72 -138 -172 -138c-66 0 -114 9 -164 29l15 91c47 -22 97 -35 145 -35c42 0 64 19 64 44c0 26 -20 38 -69 49l-88 21c-102 24 -143 56 -143 123z" />
    <glyph glyph-name="ordfeminine" unicode="&#xaa;" horiz-adv-x="391" 
d="M328 356h-73l-6 39c-28 -26 -61 -45 -107 -45c-56 0 -92 34 -92 88c0 74 58 111 194 123v8c0 34 -21 46 -56 46c-37 0 -71 -11 -107 -27l-10 66c38 17 79 27 131 27c84 0 126 -32 126 -107v-218zM337 222h-283v66h272zM244 446v66c-89 -12 -112 -37 -112 -64
c0 -22 14 -35 37 -35c25 0 53 12 75 33z" />
    <glyph glyph-name="ordmasculine" unicode="&#xba;" horiz-adv-x="393" 
d="M352 515c0 -104 -66 -166 -156 -166c-89 0 -154 62 -154 166c0 103 65 166 154 166c90 0 156 -63 156 -166zM346 222h-294v66h283zM266 515c0 55 -24 96 -70 96c-45 0 -69 -41 -69 -96c0 -56 24 -97 69 -97c46 0 70 41 70 97z" />
    <glyph glyph-name="degree" unicode="&#xb0;" horiz-adv-x="436" 
d="M390 509c0 -99 -72 -170 -172 -170s-172 71 -172 170c0 100 72 173 172 173s172 -73 172 -173zM311 509c0 57 -39 100 -93 100s-93 -43 -93 -100s39 -97 93 -97s93 40 93 97z" />
    <glyph glyph-name="percent" unicode="%" horiz-adv-x="897" 
d="M371 485c0 -126 -73 -199 -165 -199s-165 73 -165 199c0 127 73 199 165 199c93 0 165 -72 165 -199zM272 -7l-79 19l219 334l212 337l80 -19l-219 -335zM855 191c0 -126 -73 -199 -165 -199s-165 73 -165 199c0 127 73 199 165 199s165 -72 165 -199zM280 485
c0 74 -23 126 -74 126s-74 -52 -74 -126c0 -72 25 -125 74 -125c52 0 74 52 74 125zM764 191c0 73 -24 125 -74 125c-51 0 -74 -51 -74 -125c0 -73 24 -126 74 -126c51 0 74 52 74 126z" />
    <glyph glyph-name="quotedbl" unicode="&#x22;" horiz-adv-x="465" 
d="M410 676l-35 -254l-74 17l-33 237h142zM196 676l-34 -254l-75 17l-32 237h141z" />
    <glyph glyph-name="quotesingle" unicode="'" horiz-adv-x="253" 
d="M198 676l-34 -254l-77 17l-32 237h143z" />
    <glyph glyph-name="plus" unicode="+" horiz-adv-x="572" 
d="M518 290h-182v-188h-100v188h-182v96h182v188h100v-188h182v-96z" />
    <glyph glyph-name="minus" unicode="&#x2212;" horiz-adv-x="572" 
d="M518 287h-464v102h464v-102z" />
    <glyph glyph-name="divide" unicode="&#xf7;" horiz-adv-x="572" 
d="M344 469h-116v119h116v-119zM518 291h-464v94h464v-94zM344 88h-116v119h116v-119z" />
    <glyph glyph-name="equal" unicode="=" horiz-adv-x="590" 
d="M518 404h-445v100h445v-100zM518 172h-445v100h445v-100z" />
    <glyph glyph-name="multiply" unicode="&#xd7;" horiz-adv-x="572" 
d="M436 117l-151 154l-151 -153l-68 68l153 151l-154 151l71 71l151 -154l151 153l68 -68l-153 -151l154 -151z" />
    <glyph glyph-name="less" unicode="&#x3c;" horiz-adv-x="572" 
d="M504 73l-447 222v86l447 222v-108l-326 -156l326 -157v-109z" />
    <glyph glyph-name="greater" unicode="&#x3e;" horiz-adv-x="572" 
d="M515 295l-447 -222v108l326 156l-326 157v109l447 -222v-86z" />
    <glyph glyph-name="plusminus" unicode="&#xb1;" horiz-adv-x="540" 
d="M462 364h-143v-148h-98v148h-143v92h143v150h98v-150h143v-92zM492 76h-444v93h444v-93z" />
    <glyph glyph-name="onehalf" unicode="&#xbd;" horiz-adv-x="810" 
d="M325 308h-268v73h92v217l-87 -33l-11 71l120 49h67v-304h75zM775 0h-285v71l137 122c29 26 42 41 42 65c0 27 -21 41 -50 41c-38 0 -75 -17 -109 -38l-12 79c35 21 79 38 135 38c85 0 133 -47 133 -107c0 -50 -28 -81 -77 -123l-84 -71h156zM245 -11l-66 18l209 339
l197 338l66 -18l-210 -340z" />
    <glyph glyph-name="onequarter" unicode="&#xbc;" horiz-adv-x="810" 
d="M325 308h-268v73h92v217l-87 -33l-11 71l120 49h67v-304h75zM775 72h-52v-76h-84v76h-175v60l145 241h114v-238h52v-63zM644 135v76l4 99h-7l-32 -65l-37 -62l-31 -47l3 -4l50 3h50zM260 -11l-66 18l209 339l197 338l66 -18l-210 -340z" />
    <glyph glyph-name="threequarters" unicode="&#xbe;" horiz-adv-x="810" 
d="M322 410c0 -69 -65 -109 -156 -109c-49 0 -97 11 -131 29l13 73c35 -17 77 -29 117 -29c39 0 64 18 64 45c0 33 -25 45 -91 45h-31l-12 67h45c61 0 82 17 82 43c0 24 -19 38 -56 38c-39 0 -79 -12 -111 -31l-13 72c36 19 77 33 132 33c91 0 141 -38 141 -97
c0 -45 -31 -74 -79 -89c55 -14 86 -42 86 -90zM775 72h-52v-76h-84v76h-175v60l145 241h114v-238h52v-63zM644 135v76l4 99h-7l-32 -65l-37 -62l-31 -47l3 -4l50 3h50zM250 -11l-66 18l209 339l197 338l66 -18l-210 -340z" />
    <glyph glyph-name="one.sup" unicode="&#xb9;" horiz-adv-x="360" 
d="M325 408h-268v73h92v217l-87 -33l-11 71l120 49h67v-304h75z" />
    <glyph glyph-name="two.sup" unicode="&#xb2;" horiz-adv-x="360" 
d="M325 408h-285v71l137 122c29 26 42 41 42 65c0 27 -21 41 -50 41c-38 0 -75 -17 -109 -38l-12 79c35 21 79 38 135 38c85 0 133 -47 133 -107c0 -50 -28 -81 -77 -123l-84 -71h156z" />
    <glyph glyph-name="three.sup" unicode="&#xb3;" horiz-adv-x="360" 
d="M322 510c0 -69 -65 -109 -156 -109c-49 0 -97 11 -131 29l13 73c35 -17 77 -29 117 -29c39 0 64 18 64 45c0 33 -25 45 -91 45h-31l-12 67h45c61 0 82 17 82 43c0 24 -19 38 -56 38c-39 0 -79 -12 -111 -31l-13 72c36 19 77 33 132 33c91 0 141 -38 141 -97
c0 -45 -31 -74 -79 -89c55 -14 86 -42 86 -90z" />
    <glyph glyph-name="space" unicode=" " horiz-adv-x="214" 
 />
    <glyph glyph-name="uni00A0" unicode="&#xa0;" horiz-adv-x="107" 
 />
    <glyph glyph-name="emspace" unicode="&#x2003;" horiz-adv-x="1000" 
 />
    <glyph glyph-name="enspace" unicode="&#x2002;" horiz-adv-x="500" 
 />
    <glyph glyph-name="threeperemspace" unicode="&#x2004;" horiz-adv-x="333" 
 />
    <glyph glyph-name="fourperemspace" unicode="&#x2005;" horiz-adv-x="250" 
 />
    <glyph glyph-name="thinspace" unicode="&#x2009;" horiz-adv-x="133" 
 />
    <glyph glyph-name="hairspace" unicode="&#x200a;" horiz-adv-x="75" 
 />
    <glyph glyph-name="NUL" horiz-adv-x="0" 
 />
    <glyph glyph-name="hcoslug" horiz-adv-x="694" 
d="M273 18h-26c0 -9 3 -12 10 -12c5 0 8 2 9 7h7c-2 -8 -7 -14 -18 -14c-13 0 -21 8 -21 20s9 21 20 21c14 0 20 -9 19 -22zM254 35c-4 0 -7 -3 -7 -12h14c0 8 -2 12 -7 12zM195 78c5 0 8 4 8 16c0 11 -3 15 -8 15s-8 -4 -8 -15c0 -12 3 -16 8 -16zM210 4c5 0 8 4 8 16
c0 11 -3 15 -8 15s-8 -4 -8 -15c0 -12 3 -16 8 -16zM210 -1c-12 0 -21 8 -21 21c0 12 9 20 21 20s21 -8 21 -20s-9 -21 -21 -21zM546 4c5 0 8 4 8 16c0 11 -3 15 -8 15s-8 -4 -8 -15c0 -12 3 -16 8 -16zM546 -1c-12 0 -21 8 -21 21c0 12 9 20 21 20s21 -8 21 -20
s-9 -21 -21 -21zM125 74v7h7v41h-7v7h51v-20h-8c-2 11 -4 13 -11 13h-12v-18h4c5 0 5 1 6 8h7v-23h-7c-1 7 -1 8 -6 8h-4v-16h10v-7h-30zM195 73c-12 0 -21 8 -21 21c0 12 9 20 21 20s21 -8 21 -20s-9 -21 -21 -21zM644 -100v800h-594v-800h594zM498 -1c-18 0 -29 11 -29 28
c0 18 13 30 27 30c7 0 12 -3 16 -7l1 6h8v-22h-8c-4 12 -7 16 -15 16s-14 -6 -14 -22c0 -15 6 -22 16 -22c8 0 13 7 14 16h8c-1 -14 -9 -23 -24 -23zM372 80c5 0 7 5 7 13s-2 13 -7 13c-6 0 -8 -6 -8 -13c0 -8 2 -13 8 -13zM276 0v7h6v25h-7v7h7v1c0 13 9 19 19 19
c3 0 7 -1 9 -2l10 2v-52h6v-7h-23v7h5v25h-14v-25h5v-7h-23zM368 0v7h6v25h-6v7h18v-10c3 8 7 11 12 11s8 -3 8 -8c0 -4 -3 -7 -7 -7c-3 0 -6 2 -6 6v1c-2 0 -5 -4 -7 -9v-16h8v-7h-26zM352 73v52h-6v7h18v-27c2 6 7 9 13 9c9 0 15 -8 15 -20c0 -9 -4 -21 -16 -21
c-7 0 -11 3 -14 8l-4 -8h-6zM400 75c7 0 8 -7 5 -10c4 0 7 3 8 8c-4 10 -16 33 -16 33h-5v7h25v-7h-6l9 -20l8 20h-5v7h17v-7h-5l-13 -31c-4 -10 -9 -16 -18 -16c-7 0 -11 4 -11 9c0 4 3 7 7 7zM247 428c0 17 11 29 27 29c17 0 29 -15 29 -38c0 -17 -7 -33 -18 -50
c-23 22 -38 36 -38 59zM302 74v14h7c4 -6 7 -9 12 -9c3 0 5 2 5 4c0 8 -24 3 -24 19c0 6 5 12 14 12c5 0 9 -2 11 -5l2 5h6v-13h-7c-3 4 -6 7 -10 7c-3 0 -5 -2 -5 -4c0 -8 24 -2 24 -18c0 -7 -5 -13 -14 -13c-7 0 -10 3 -13 5l-1 -4h-7zM261 219c-30 0 -52 23 -52 54
c0 15 5 29 16 40c18 -17 46 -47 74 -82c-11 -9 -23 -12 -38 -12zM274 122l12 2v-11h13v-7h-13v-20c0 -3 1 -5 4 -5c2 0 4 2 5 7l5 -2c-2 -9 -6 -13 -14 -13s-12 5 -12 13v20h-7v7h7v9zM428 306c-15 -9 -31 -22 -46 -42c25 -29 42 -41 62 -41c21 0 33 12 43 29l7 -2
c-2 -58 -37 -94 -80 -94c-30 0 -52 11 -85 45c-28 -31 -62 -45 -104 -45c-60 0 -109 40 -109 93c0 42 29 73 82 91c-21 22 -31 40 -31 69c0 43 42 85 109 85c62 0 95 -39 95 -74c0 -13 -3 -24 -9 -34c27 1 47 -10 49 -37c16 24 35 38 60 38c28 0 50 -21 50 -52
s-22 -54 -50 -54c-18 0 -34 10 -43 25zM219 74v7h6v25h-6v7h17v-10c3 7 7 11 14 11c9 0 12 -6 12 -14v-19h6v-7h-22v7h4v18c0 4 -2 7 -6 7s-7 -4 -7 -10v-15h4v-7h-22zM446 33h18v-7h-5c-3 -6 -6 -10 -9 -14c2 -3 4 -5 6 -5s3 1 4 5l5 -1c-2 -7 -5 -12 -13 -12
c-5 0 -8 1 -12 6c-4 -4 -9 -6 -15 -6c-12 0 -18 6 -18 14s6 13 13 15c-4 4 -6 7 -6 12c0 7 7 14 17 14c9 0 14 -6 14 -12s-4 -9 -11 -12c5 -5 8 -9 12 -13c2 2 5 6 6 9h-6v7zM429 6c2 0 5 1 8 3c-5 6 -9 11 -14 16c-2 -2 -4 -5 -4 -9c0 -6 4 -10 10 -10zM294 42v-3h14v5
c-3 0 -6 2 -6 6c0 2 1 3 1 3s-1 1 -3 1c-3 0 -6 -2 -6 -12zM425 43c0 -3 2 -6 6 -10c3 2 5 5 5 9c0 3 -2 6 -6 6c-3 0 -5 -2 -5 -5zM312 342c19 13 33 24 42 34c23 -23 18 -47 -1 -80c-13 15 -25 30 -41 46zM366 18h-26c0 -9 3 -12 10 -12c5 0 8 2 9 7h7
c-2 -8 -7 -14 -18 -14c-13 0 -21 8 -21 20s9 21 20 21c14 0 20 -9 19 -22zM347 35c-4 0 -7 -3 -7 -12h14c0 8 -2 12 -7 12zM124 0v7h8v41h-8v7h29v-7h-8v-16h22v16h-8v7h29v-7h-8v-41h8v-7h-29v7h8v18h-22v-18h8v-7h-29zM576 13c4 0 7 -3 7 -7s-3 -7 -7 -7s-7 3 -7 7
s3 7 7 7z" />
    <glyph glyph-name="A.flat" horiz-adv-x="701" 
d="M21 0l259 693h141l259 -693h-142l-63 175h-261l-61 -175h-132zM345 550l-95 -267h188z" />
    <glyph glyph-name="E.flat" horiz-adv-x="521" 
d="M484 0h-411v690h401v-112h-270v-165h217v-111h-217v-190h280v-112z" />
    <glyph glyph-name="F.flat" horiz-adv-x="491" 
d="M459 575h-254v-176h203v-114h-203v-285h-132v690h386v-115z" />
    <glyph glyph-name="G.flat" horiz-adv-x="689" 
d="M627 57c-65 -42 -150 -70 -242 -70c-219 0 -339 144 -339 357c0 214 127 359 337 359c88 0 155 -22 210 -55l-19 -123c-52 37 -114 65 -190 65c-135 0 -203 -98 -203 -245c0 -148 70 -246 209 -246c48 0 82 10 116 28v153h-147v106h268v-329z" />
    <glyph glyph-name="K.flat" horiz-adv-x="635" 
d="M640 0h-165l-269 336v-336h-133v690h133v-303l249 303h159l-276 -323z" />
    <glyph glyph-name="L.flat" horiz-adv-x="480" 
d="M449 0h-376v690h133v-572h243v-118z" />
    <glyph glyph-name="Q.alt_flat" horiz-adv-x="749" 
d="M702 118v-136l-121 85c-55 -50 -128 -78 -212 -78c-197 0 -323 142 -323 355c0 214 127 359 325 359c200 0 322 -146 322 -354c0 -74 -16 -140 -45 -195zM561 347c0 149 -72 246 -190 246c-120 0 -191 -97 -191 -249c0 -151 73 -248 192 -248c45 0 83 13 113 38l-101 70
v135l159 -114c12 35 18 76 18 122z" />
    <glyph glyph-name="R.flat" horiz-adv-x="596" 
d="M593 0h-157l-175 264h-56v-264h-132v690h214c154 0 247 -73 247 -207c0 -101 -54 -164 -140 -194zM404 476c0 69 -44 108 -127 108h-73v-219h67c82 0 133 39 133 111z" />
    <glyph glyph-name="T.flat" horiz-adv-x="606" 
d="M577 575h-208v-575h-132v575h-208v115h548v-115z" />
    <glyph glyph-name="V.flat" horiz-adv-x="691" 
d="M670 690l-259 -694h-131l-259 694h150l180 -522l180 522h139z" />
    <glyph glyph-name="W.flat" horiz-adv-x="1006" 
d="M980 690l-199 -692h-126l-153 504l-153 -504h-125l-198 692h147l127 -487l144 487h133l144 -487l125 487h134z" />
    <glyph glyph-name="W.alt_flat" horiz-adv-x="1021" 
d="M999 690l-236 -693h-128l-124 345l-124 -345h-126l-239 693h147l168 -518l117 327l-65 191h147l167 -518l160 518h136z" />
    <glyph glyph-name="X.flat" horiz-adv-x="649" 
d="M626 0h-154l-155 259l-158 -259h-140l225 351l-212 339h154l141 -241l144 241h141l-213 -331z" />
    <glyph glyph-name="Y.flat" horiz-adv-x="656" 
d="M645 690l-250 -426v-264h-133v263l-250 427h152l168 -304l168 304h145z" />
    <glyph glyph-name="Z.flat" horiz-adv-x="603" 
d="M559 0h-518v97l357 484h-335v109h496v-97l-357 -484h357v-109z" />
    <glyph glyph-name="f.flat" horiz-adv-x="321" 
d="M321 614c-12 2 -30 4 -50 4c-41 0 -63 -18 -63 -60v-75h100v-98h-100v-385h-119v385h-70v98h70v87c0 107 68 146 167 146c18 0 35 -1 49 -3z" />
    <glyph glyph-name="k.flat" horiz-adv-x="495" 
d="M493 0h-141l-171 240v-240h-120v703l120 19v-439l157 200h136l-178 -218z" />
    <glyph glyph-name="t.flat" horiz-adv-x="350" 
d="M321 0c-19 -4 -41 -8 -76 -8c-95 0 -159 35 -159 145v248h-68v98h68v153l118 18v-171h109v-98h-109v-228c0 -39 18 -60 64 -60c14 0 27 1 38 4z" />
    <glyph glyph-name="v.flat" horiz-adv-x="491" 
d="M476 483l-170 -486h-119l-172 486h132l105 -336l103 336h121z" />
    <glyph glyph-name="w.flat" horiz-adv-x="725" 
d="M706 483l-145 -484h-110l-89 319l-87 -319h-110l-146 484h126l83 -320l87 320h106l87 -319l83 319h115z" />
    <glyph glyph-name="x.flat" horiz-adv-x="484" 
d="M460 0h-131l-93 162l-95 -162h-119l152 240l-147 243h132l87 -154l91 154h118l-148 -233z" />
    <glyph glyph-name="y.flat" horiz-adv-x="498" 
d="M482 483l-184 -514c-42 -116 -98 -151 -185 -151c-26 0 -37 2 -49 5l-16 101c16 -4 32 -7 53 -7c38 0 67 16 85 61l8 20l-180 485h132l109 -336l107 336h120z" />
    <glyph glyph-name="z.flat" horiz-adv-x="460" 
d="M421 0h-390v92l242 295h-226v96h371v-92l-242 -295h245v-96z" />
    <glyph glyph-name="two.flat" horiz-adv-x="543" 
d="M492 0h-450v94l242 247c52 55 78 93 78 142c0 62 -38 94 -105 94c-66 0 -127 -31 -182 -75l-16 114c53 41 123 72 212 72c136 0 218 -74 218 -192c0 -88 -40 -145 -123 -227l-163 -162h289v-107z" />
    <glyph glyph-name="three.flat" horiz-adv-x="529" 
d="M488 187c0 -125 -101 -200 -248 -200c-79 0 -154 21 -208 53l18 109c56 -35 116 -55 185 -55c77 0 125 34 125 97c0 68 -45 107 -157 107h-54v104h54c100 0 145 35 145 96c0 50 -37 84 -112 84c-67 0 -126 -23 -177 -60l-16 105c52 37 120 62 207 62
c151 0 226 -79 226 -177c0 -87 -50 -134 -122 -159c85 -25 134 -75 134 -166z" />
    <glyph glyph-name="three.alt_flat" horiz-adv-x="529" 
d="M487 201c0 -129 -94 -214 -245 -214c-80 0 -156 21 -209 53l18 110c57 -36 117 -56 183 -56c79 0 127 39 127 107c0 72 -59 104 -164 104h-45l-14 83l179 181h-268v107h423v-96l-188 -187c121 -14 203 -68 203 -192z" />
    <glyph glyph-name="four.alt_flat" horiz-adv-x="599" 
d="M577 144h-101v-144h-118v144h-328v89l298 443h133l-300 -437h197v165l118 14v-179h101v-95z" />
    <glyph glyph-name="five.flat" horiz-adv-x="541" 
d="M502 219c0 -150 -110 -232 -260 -232c-84 0 -150 20 -204 49l19 112c51 -31 114 -53 186 -53c78 0 137 39 137 118c0 67 -44 108 -124 108c-45 0 -77 -8 -105 -20l-86 19l24 356h385v-108h-284l-12 -158c25 7 57 14 102 14c134 0 222 -77 222 -205z" />
    <glyph glyph-name="seven.flat" horiz-adv-x="535" 
d="M494 577l-258 -577h-134l256 566h-320v110h456v-99z" />
    <glyph glyph-name="sterling.flat" horiz-adv-x="543" 
d="M46 386h96l40 126c39 124 105 177 223 177c39 0 70 -5 96 -12l-16 -109c-24 7 -46 10 -75 10c-59 0 -91 -28 -115 -102l-29 -90h158v-103h-190l-56 -178h318v-105h-450v85l63 198h-63v103z" />
    <glyph glyph-name="Euro.flat" horiz-adv-x="600" 
d="M26 384v74h93c34 137 128 230 274 230c70 0 125 -17 171 -45l-18 -110c-46 31 -87 49 -146 49c-75 0 -129 -46 -153 -124h218v-74h-231c-1 -15 -1 -31 -1 -46c0 -13 0 -27 1 -39h231v-74h-219c24 -85 79 -130 161 -130c55 0 102 18 150 50l18 -105
c-51 -31 -110 -52 -182 -52c-153 0 -247 90 -277 237h-90v74h80c-1 12 -1 25 -1 38c0 16 0 31 2 47h-81z" />
    <glyph glyph-name="yen.flat" horiz-adv-x="630" 
d="M92 224v72h141l-219 380h144l162 -304l161 304h135l-221 -380h142v-72h-160v-71h160v-72h-160v-81h-125v81h-160v72h160v71h-160z" />
    <glyph glyph-name="numbersign.flat" horiz-adv-x="667" 
d="M547 678l-25 -159h105v-101h-121l-26 -160h122v-101h-138l-25 -159h-84l25 159h-152l-25 -159h-83l25 159h-106v101h122l26 160h-123v101h139l25 159h83l-26 -159h153l25 159h84zM269 420l-26 -164h154l26 164h-154z" />
    <glyph glyph-name="ordfeminine.flat" horiz-adv-x="391" 
d="M328 356h-73l-6 39c-28 -26 -61 -45 -107 -45c-56 0 -92 34 -92 88c0 74 58 111 194 123v8c0 34 -21 46 -56 46c-37 0 -71 -11 -107 -27l-10 66c38 17 79 27 131 27c84 0 126 -32 126 -107v-218zM332 222h-278v66h278v-66zM244 446v66c-89 -12 -112 -37 -112 -64
c0 -22 14 -35 37 -35c25 0 53 12 75 33z" />
    <glyph glyph-name="ordmasculine.flat" horiz-adv-x="393" 
d="M352 515c0 -104 -66 -166 -156 -166c-89 0 -154 62 -154 166c0 103 65 166 154 166c90 0 156 -63 156 -166zM342 222h-290v66h290v-66zM266 515c0 55 -24 96 -70 96c-45 0 -69 -41 -69 -96c0 -56 24 -97 69 -97c46 0 70 41 70 97z" />
    <glyph glyph-name="percent.flat" horiz-adv-x="897" 
d="M371 485c0 -126 -73 -199 -165 -199s-165 73 -165 199c0 127 73 199 165 199c93 0 165 -72 165 -199zM276 0h-91l227 346l208 330h91l-226 -347zM855 191c0 -126 -73 -199 -165 -199s-165 73 -165 199c0 127 73 199 165 199s165 -72 165 -199zM280 485
c0 74 -23 126 -74 126s-74 -52 -74 -126c0 -72 25 -125 74 -125c52 0 74 52 74 125zM764 191c0 73 -24 125 -74 125c-51 0 -74 -51 -74 -125c0 -73 24 -126 74 -126c51 0 74 52 74 126z" />
    <glyph glyph-name="ampersand.flat" horiz-adv-x="680" 
d="M693 0h-154l-73 76c-56 -57 -126 -89 -209 -89c-139 0 -226 70 -226 191c0 96 59 162 145 206c-42 49 -61 88 -61 149c0 92 69 170 195 170c72 0 132 -18 178 -42l-19 -117c-54 32 -104 51 -151 51c-52 0 -78 -28 -78 -67c0 -34 17 -60 55 -100l165 -178
c17 43 30 95 39 157l105 -23c-13 -84 -36 -155 -69 -215zM268 88c47 0 93 18 131 60l-157 167c-57 -33 -87 -75 -87 -126c0 -59 44 -101 113 -101z" />
    <glyph glyph-name="exclam.flat" horiz-adv-x="284" 
d="M216 690l-37 -460h-74l-37 460h148zM207 0h-131v146h131v-146z" />
    <glyph glyph-name="exclamdown.flat" horiz-adv-x="284" 
d="M68 0l37 460h74l37 -460h-148zM77 690h131v-146h-131v146z" />
    <glyph glyph-name="guillemotleft.flat" horiz-adv-x="549" 
d="M287 483l-127 -241l127 -242h-95l-164 242l164 241h95zM508 483l-127 -241l127 -242h-95l-164 242l164 241h95z" />
    <glyph glyph-name="guillemotright.flat" horiz-adv-x="549" 
d="M262 0l127 241l-127 242h95l164 -242l-164 -241h-95zM41 0l127 241l-127 242h95l164 -242l-164 -241h-95z" />
    <glyph glyph-name="guilsinglleft.flat" horiz-adv-x="328" 
d="M287 483l-127 -241l127 -242h-95l-164 242l164 241h95z" />
    <glyph glyph-name="guilsinglright.flat" horiz-adv-x="328" 
d="M41 0l127 241l-127 242h95l164 -242l-164 -241h-95z" />
    <glyph glyph-name="parenleft.flat" horiz-adv-x="397" 
d="M186 314c0 -137 52 -235 158 -319l-14 -93c-177 95 -275 229 -275 412s98 317 275 412l14 -93c-106 -84 -158 -182 -158 -319z" />
    <glyph glyph-name="parenright.flat" horiz-adv-x="397" 
d="M211 314c0 137 -52 235 -158 319l14 93c177 -95 276 -229 276 -412s-99 -317 -276 -412l-14 93c106 84 158 182 158 319z" />
    <glyph glyph-name="bracketleft.flat" horiz-adv-x="414" 
d="M368 -104h-289v794h289v-81h-174v-632h174v-81z" />
    <glyph glyph-name="bracketright.flat" horiz-adv-x="414" 
d="M45 690h289v-794h-289v81h174v632h-174v81z" />
    <glyph glyph-name="braceleft.flat" horiz-adv-x="491" 
d="M446 -104h-131c-100 0 -150 49 -150 131c0 46 14 89 14 135c0 69 -42 92 -103 92h-38v79h39c61 0 102 23 102 91c0 46 -14 89 -14 135c0 83 50 131 150 131h131v-81h-97c-46 0 -66 -21 -66 -59c0 -40 13 -84 13 -128c0 -79 -41 -113 -108 -128v-2
c67 -14 108 -49 108 -128c0 -43 -13 -88 -13 -128c0 -37 19 -59 65 -59h98v-81z" />
    <glyph glyph-name="braceright.flat" horiz-adv-x="491" 
d="M44 690h131c101 0 150 -49 150 -131c0 -46 -13 -89 -13 -135c0 -69 41 -92 102 -92h38v-79h-38c-62 0 -102 -23 -102 -91c0 -46 13 -89 13 -135c0 -83 -49 -131 -150 -131h-131v81h97c46 0 67 21 67 59c0 40 -14 84 -14 128c0 79 41 113 108 128v2
c-67 14 -108 49 -108 128c0 43 14 88 14 128c0 37 -20 59 -66 59h-98v81z" />
    <glyph glyph-name="registered.alt_flat" horiz-adv-x="799" 
d="M745 346c0 -213 -142 -359 -346 -359c-205 0 -345 144 -345 357c0 214 142 359 346 359c205 0 345 -144 345 -357zM701 345c0 207 -132 322 -301 322c-172 0 -302 -115 -302 -322s132 -322 302 -322c171 0 301 115 301 322zM483 155l-96 139h-33v-139h-87v394h128
c93 0 151 -46 151 -125c0 -54 -28 -91 -72 -111l115 -158h-106zM354 480v-120h36c45 0 70 21 70 60c0 37 -24 60 -69 60h-37z" />
    <glyph glyph-name="registered.flat" horiz-adv-x="563" 
d="M508 470c0 -138 -95 -232 -227 -232c-134 0 -226 93 -226 232c0 138 94 233 227 233s226 -94 226 -233zM476 470c0 132 -87 206 -194 206c-109 0 -195 -74 -195 -206c0 -131 87 -205 194 -205c109 0 195 74 195 205zM403 350h-67l-65 98h-19v-98h-57v257h88
c59 0 95 -28 95 -78c0 -37 -20 -60 -49 -71zM321 525c0 23 -15 36 -42 36h-27v-73h26c27 0 43 12 43 37z" />
    <glyph glyph-name="trademark.flat" horiz-adv-x="806" 
d="M762 345h-78l-16 231l-82 -232h-66l-82 232l-17 -231h-69l26 345h96l84 -242l85 242h92zM319 626h-106v-281h-77v281h-105v64h288v-64z" />
    <glyph glyph-name="trademark.alt_flat" horiz-adv-x="813" 
d="M761 345h-73v240l-91 -243h-66l-91 243v-240h-71v345h102l96 -250l92 250h102v-345zM319 626h-106v-281h-77v281h-105v64h288v-64z" />
    <glyph glyph-name="AE.flat" horiz-adv-x="896" 
d="M2 0l374 690h473v-112h-271v-165h217v-111h-217v-190h281v-112h-407v175h-218l-94 -175h-138zM289 283h163v310z" />
    <glyph glyph-name="OE.flat" horiz-adv-x="892" 
d="M855 0h-443c-240 0 -364 141 -364 344c0 205 129 346 364 346h433v-112h-269v-165h216v-111h-216v-190h279v-112zM446 109v472h-32c-144 0 -232 -74 -232 -236c0 -158 93 -236 231 -236h33z" />
    <glyph glyph-name="Eth.flat" horiz-adv-x="727" 
d="M679 346c0 -205 -129 -346 -364 -346h-219v301h-79v114h79v275h219c240 0 364 -141 364 -344zM545 345c0 159 -93 236 -231 236h-87v-168h143v-111h-143v-193h86c144 0 232 74 232 236z" />
    <glyph glyph-name="Dcroat.flat" horiz-adv-x="727" 
d="M679 346c0 -205 -129 -346 -364 -346h-219v301h-79v114h79v275h219c240 0 364 -141 364 -344zM545 345c0 159 -93 236 -231 236h-87v-168h143v-111h-143v-193h86c144 0 232 74 232 236z" />
    <glyph glyph-name="Hbar.flat" horiz-adv-x="752" 
d="M656 0h-133v293h-294v-293h-133v509h-81v90h81v91h132v-91h295v91h133v-91h81v-90h-81v-509zM228 408h295v103h-295v-103z" />
    <glyph glyph-name="Lslash.flat" horiz-adv-x="504" 
d="M370 393l-142 -78v-197h244v-118h-376v242l-79 -44v119l79 43v330h132v-258l142 79v-118z" />
    <glyph glyph-name="Aogonek.flat" horiz-adv-x="701" 
d="M21 0l259 693h141l259 -693h-34l-15 -24c-19 -28 -29 -45 -29 -63c0 -21 13 -30 37 -30c14 0 27 2 42 6v-65c-26 -10 -56 -18 -87 -18c-53 0 -86 25 -86 76c0 34 18 70 57 118h-27l-63 175h-261l-61 -175h-132zM345 550l-95 -267h188z" />
    <glyph glyph-name="Eogonek.flat" horiz-adv-x="521" 
d="M484 0h-33l-15 -24c-19 -28 -29 -45 -29 -63c0 -21 13 -30 37 -30c14 0 27 2 42 6v-65c-26 -10 -56 -18 -87 -18c-53 0 -86 25 -86 76c0 34 18 70 57 118h-297v690h401v-112h-270v-165h217v-111h-217v-190h280v-112z" />
    <glyph glyph-name="Aring.flat" horiz-adv-x="701" 
d="M466 729c0 -30 -11 -56 -31 -74l245 -655h-141l-63 175h-262l-62 -175h-131l243 651c-22 19 -34 46 -34 78c0 59 45 106 118 106s118 -47 118 -106zM345 550l-95 -267h189zM401 729c0 32 -22 59 -53 59c-32 0 -54 -27 -54 -59c0 -33 22 -59 54 -59c31 0 53 26 53 59z" />
    <glyph glyph-name="Aringacute.flat" horiz-adv-x="701" 
d="M466 729c0 -30 -11 -56 -31 -74l245 -655h-141l-63 175h-262l-62 -175h-131l243 651c-22 19 -34 46 -34 78c0 59 45 106 118 106s118 -47 118 -106zM345 550l-95 -267h189zM518 986l-140 -124h-79l74 151zM401 729c0 32 -22 59 -53 59c-32 0 -54 -27 -54 -59
c0 -33 22 -59 54 -59c31 0 53 26 53 59z" />
    <glyph glyph-name="Ldot.flat" horiz-adv-x="480" 
d="M437 301h-113v115h113v-115zM449 0h-376v690h133v-572h243v-118z" />
    <glyph glyph-name="Aacute.flat" horiz-adv-x="701" 
d="M21 0l259 693h141l259 -693h-142l-63 175h-261l-61 -175h-132zM345 550l-95 -267h188zM518 880l-140 -124h-79l74 151z" />
    <glyph glyph-name="Agrave.flat" horiz-adv-x="701" 
d="M21 0l259 693h141l259 -693h-142l-63 175h-261l-61 -175h-132zM345 550l-95 -267h188zM398 756h-79l-141 124l147 27z" />
    <glyph glyph-name="Acircumflex.flat" horiz-adv-x="701" 
d="M21 0l259 693h141l259 -693h-142l-63 175h-261l-61 -175h-132zM503 756h-76l-79 65l-79 -65h-76l99 144h112zM345 550l-95 -267h188z" />
    <glyph glyph-name="Abreve.flat" horiz-adv-x="701" 
d="M21 0l259 693h141l259 -693h-142l-63 175h-261l-61 -175h-132zM498 882c-13 -79 -61 -126 -151 -126c-85 0 -135 46 -149 126l72 13c13 -38 35 -57 79 -57c42 0 64 19 77 57zM345 550l-95 -267h188z" />
    <glyph glyph-name="Atilde.flat" horiz-adv-x="701" 
d="M21 0l259 693h141l259 -693h-142l-63 175h-261l-61 -175h-132zM513 884c-11 -89 -41 -126 -89 -126c-26 0 -43 8 -71 21c-38 18 -50 23 -65 23s-24 -10 -32 -48l-64 14c11 90 40 127 88 127c26 0 44 -8 71 -21c38 -19 50 -24 65 -24s24 11 32 48zM345 550l-95 -267h188z
" />
    <glyph glyph-name="Amacron.flat" horiz-adv-x="701" 
d="M21 0l259 693h141l259 -693h-142l-63 175h-261l-61 -175h-132zM345 550l-95 -267h188zM490 773h-284v88h284v-88z" />
    <glyph glyph-name="Adieresis.flat" horiz-adv-x="701" 
d="M21 0l259 693h141l259 -693h-142l-63 175h-261l-61 -175h-132zM345 550l-95 -267h188zM311 759h-115v115h115v-115zM500 759h-115v115h115v-115z" />
    <glyph glyph-name="Eacute.flat" horiz-adv-x="521" 
d="M446 870l-140 -124h-79l74 151zM484 0h-411v690h401v-112h-270v-165h217v-111h-217v-190h280v-112z" />
    <glyph glyph-name="Egrave.flat" horiz-adv-x="521" 
d="M484 0h-411v690h401v-112h-270v-165h217v-111h-217v-190h280v-112zM327 746h-79l-141 124l147 27z" />
    <glyph glyph-name="Ecircumflex.flat" horiz-adv-x="521" 
d="M431 746h-76l-79 65l-79 -65h-76l99 144h112zM484 0h-411v690h401v-112h-270v-165h217v-111h-217v-190h280v-112z" />
    <glyph glyph-name="Ecaron.flat" horiz-adv-x="521" 
d="M121 890h76l79 -65l79 65h76l-99 -144h-112zM484 0h-411v690h401v-112h-270v-165h217v-111h-217v-190h280v-112z" />
    <glyph glyph-name="Ebreve.flat" horiz-adv-x="521" 
d="M484 0h-411v690h401v-112h-270v-165h217v-111h-217v-190h280v-112zM426 872c-13 -79 -61 -126 -151 -126c-85 0 -135 46 -149 126l72 13c13 -38 35 -57 79 -57c42 0 64 19 77 57z" />
    <glyph glyph-name="Emacron.flat" horiz-adv-x="521" 
d="M484 0h-411v690h401v-112h-270v-165h217v-111h-217v-190h280v-112zM418 763h-284v88h284v-88z" />
    <glyph glyph-name="Edieresis.flat" horiz-adv-x="521" 
d="M428 749h-115v115h115v-115zM239 749h-115v115h115v-115zM484 0h-411v690h401v-112h-270v-165h217v-111h-217v-190h280v-112z" />
    <glyph glyph-name="Edotaccent.flat" horiz-adv-x="521" 
d="M484 0h-411v690h401v-112h-270v-165h217v-111h-217v-190h280v-112zM335 749h-118v115h118v-115z" />
    <glyph glyph-name="Gbreve.flat" horiz-adv-x="689" 
d="M627 57c-65 -42 -150 -70 -242 -70c-219 0 -339 144 -339 357c0 214 127 359 337 359c88 0 155 -22 210 -55l-19 -123c-52 37 -114 65 -190 65c-135 0 -203 -98 -203 -245c0 -148 70 -246 209 -246c48 0 82 10 116 28v153h-147v106h268v-329zM518 882
c-13 -79 -61 -126 -151 -126c-85 0 -135 46 -149 126l72 13c13 -38 35 -57 79 -57c42 0 64 19 77 57z" />
    <glyph glyph-name="Gdotaccent.flat" horiz-adv-x="689" 
d="M627 57c-65 -42 -150 -70 -242 -70c-219 0 -339 144 -339 357c0 214 127 359 337 359c88 0 155 -22 210 -55l-19 -123c-52 37 -114 65 -190 65c-135 0 -203 -98 -203 -245c0 -148 70 -246 209 -246c48 0 82 10 116 28v153h-147v106h268v-329zM427 759h-118v115h118v-115z
" />
    <glyph glyph-name="Gcommaaccent.flat" horiz-adv-x="689" 
d="M296 -88l99 25c29 -28 43 -54 43 -88c0 -38 -21 -79 -80 -127l-74 16c36 44 49 73 49 101c0 26 -10 45 -37 73zM627 57c-65 -42 -150 -70 -242 -70c-219 0 -339 144 -339 357c0 214 127 359 337 359c88 0 155 -22 210 -55l-19 -123c-52 37 -114 65 -190 65
c-135 0 -203 -98 -203 -245c0 -148 70 -246 209 -246c48 0 82 10 116 28v153h-147v106h268v-329z" />
    <glyph glyph-name="Kcommaaccent.flat" horiz-adv-x="635" 
d="M640 0h-165l-269 336v-336h-133v690h133v-303l249 303h159l-276 -323zM251 -76l99 25c29 -28 43 -54 43 -88c0 -38 -21 -79 -80 -127l-74 16c36 44 49 73 49 101c0 26 -10 45 -37 73z" />
    <glyph glyph-name="Lacute.flat" horiz-adv-x="480" 
d="M331 871l-140 -124h-79l74 151zM449 0h-376v690h133v-572h243v-118z" />
    <glyph glyph-name="Lcaron.flat" horiz-adv-x="480" 
d="M378 700c10 -24 16 -48 16 -72c0 -47 -27 -93 -67 -130l-59 12c22 37 31 64 31 97c0 24 -9 50 -23 79zM449 0h-376v690h133v-572h243v-118z" />
    <glyph glyph-name="Lcommaaccent.flat" horiz-adv-x="480" 
d="M188 -85l99 25c29 -28 43 -54 43 -88c0 -38 -21 -79 -80 -127l-74 16c36 44 49 73 49 101c0 26 -10 45 -37 73zM449 0h-376v690h133v-572h243v-118z" />
    <glyph glyph-name="Racute.flat" horiz-adv-x="596" 
d="M459 870l-140 -124h-79l74 151zM593 0h-157l-175 264h-56v-264h-132v690h214c154 0 247 -73 247 -207c0 -101 -54 -164 -140 -194zM404 476c0 69 -44 108 -127 108h-73v-219h67c82 0 133 39 133 111z" />
    <glyph glyph-name="Rcaron.flat" horiz-adv-x="596" 
d="M135 890h76l79 -65l79 65h76l-99 -144h-112zM593 0h-157l-175 264h-56v-264h-132v690h214c154 0 247 -73 247 -207c0 -101 -54 -164 -140 -194zM404 476c0 69 -44 108 -127 108h-73v-219h67c82 0 133 39 133 111z" />
    <glyph glyph-name="Rcommaaccent.flat" horiz-adv-x="596" 
d="M227 -76l99 25c29 -28 43 -54 43 -88c0 -38 -21 -79 -80 -127l-74 16c36 44 49 73 49 101c0 26 -10 45 -37 73zM593 0h-157l-175 264h-56v-264h-132v690h214c154 0 247 -73 247 -207c0 -101 -54 -164 -140 -194zM404 476c0 69 -44 108 -127 108h-73v-219h67
c82 0 133 39 133 111z" />
    <glyph glyph-name="Tcaron.flat" horiz-adv-x="606" 
d="M149 890h76l79 -65l79 65h76l-99 -144h-112zM577 575h-208v-575h-132v575h-208v115h548v-115z" />
    <glyph glyph-name="Tcommaaccent.flat" horiz-adv-x="606" 
d="M232 -85l99 25c29 -28 43 -54 43 -88c0 -38 -21 -79 -80 -127l-74 16c36 44 49 73 49 101c0 26 -10 45 -37 73zM577 575h-208v-575h-132v575h-208v115h548v-115z" />
    <glyph glyph-name="Wacute.flat" horiz-adv-x="1006" 
d="M680 870l-140 -124h-79l74 151zM980 690l-199 -692h-126l-153 504l-153 -504h-125l-198 692h147l127 -487l144 487h133l144 -487l125 487h134z" />
    <glyph glyph-name="Wgrave.flat" horiz-adv-x="1006" 
d="M980 690l-199 -692h-126l-153 504l-153 -504h-125l-198 692h147l127 -487l144 487h133l144 -487l125 487h134zM560 746h-79l-141 124l147 27z" />
    <glyph glyph-name="Wcircumflex.flat" horiz-adv-x="1006" 
d="M665 746h-76l-79 65l-79 -65h-76l99 144h112zM980 690l-199 -692h-126l-153 504l-153 -504h-125l-198 692h147l127 -487l144 487h133l144 -487l125 487h134z" />
    <glyph glyph-name="Wdieresis.flat" horiz-adv-x="1006" 
d="M662 749h-115v115h115v-115zM473 749h-115v115h115v-115zM980 690l-199 -692h-126l-153 504l-153 -504h-125l-198 692h147l127 -487l144 487h133l144 -487l125 487h134z" />
    <glyph glyph-name="Wacute.alt_flat" horiz-adv-x="1021" 
d="M999 690l-236 -693h-128l-124 345l-124 -345h-126l-239 693h147l168 -518l117 327l-65 191h147l167 -518l160 518h136zM679 870l-140 -124h-79l74 151z" />
    <glyph glyph-name="Wgrave.alt_flat" horiz-adv-x="1021" 
d="M999 690l-236 -693h-128l-124 345l-124 -345h-126l-239 693h147l168 -518l117 327l-65 191h147l167 -518l160 518h136zM559 746h-79l-141 124l147 27z" />
    <glyph glyph-name="Wcircumflex.alt_flat" horiz-adv-x="1021" 
d="M999 690l-236 -693h-128l-124 345l-124 -345h-126l-239 693h147l168 -518l117 327l-65 191h147l167 -518l160 518h136zM664 746h-76l-79 65l-79 -65h-76l99 144h112z" />
    <glyph glyph-name="Wdieresis.alt_flat" horiz-adv-x="1021" 
d="M999 690l-236 -693h-128l-124 345l-124 -345h-126l-239 693h147l168 -518l117 327l-65 191h147l167 -518l160 518h136zM473 749h-115v115h115v-115zM662 749h-115v115h115v-115z" />
    <glyph glyph-name="Yacute.flat" horiz-adv-x="656" 
d="M499 864l-140 -124h-79l74 151zM645 690l-250 -426v-264h-133v263l-250 427h152l168 -304l168 304h145z" />
    <glyph glyph-name="Ygrave.flat" horiz-adv-x="656" 
d="M645 690l-250 -426v-264h-133v263l-250 427h152l168 -304l168 304h145zM379 740h-79l-141 124l147 27z" />
    <glyph glyph-name="Ycircumflex.flat" horiz-adv-x="656" 
d="M484 740h-76l-79 65l-79 -65h-76l99 144h112zM645 690l-250 -426v-264h-133v263l-250 427h152l168 -304l168 304h145z" />
    <glyph glyph-name="Ydieresis.flat" horiz-adv-x="656" 
d="M482 743h-115v115h115v-115zM293 743h-115v115h115v-115zM645 690l-250 -426v-264h-133v263l-250 427h152l168 -304l168 304h145z" />
    <glyph glyph-name="Zacute.flat" horiz-adv-x="603" 
d="M474 870l-140 -124h-79l74 151zM559 0h-518v97l357 484h-335v109h496v-97l-357 -484h357v-109z" />
    <glyph glyph-name="Zcaron.flat" horiz-adv-x="603" 
d="M150 890h76l79 -65l79 65h76l-99 -144h-112zM559 0h-518v97l357 484h-335v109h496v-97l-357 -484h357v-109z" />
    <glyph glyph-name="Zdotaccent.flat" horiz-adv-x="603" 
d="M559 0h-518v97l357 484h-335v109h496v-97l-357 -484h357v-109zM364 749h-118v115h118v-115z" />
    <glyph glyph-name="AEacute.flat" horiz-adv-x="896" 
d="M2 0l374 690h473v-112h-271v-165h217v-111h-217v-190h281v-112h-407v175h-218l-94 -175h-138zM289 283h163v310zM684 870l-140 -124h-79l74 151z" />
    <glyph glyph-name="dcroat.flat" horiz-adv-x="541" 
d="M480 0h-103l-10 67c-34 -41 -81 -77 -148 -77c-101 0 -182 75 -182 238c0 180 99 260 211 260c46 0 83 -8 112 -18v85h-124v83h124v65l120 19v-84h66v-83h-66v-555zM360 163v208c-30 14 -53 21 -94 21c-63 0 -109 -51 -109 -157c0 -94 40 -138 93 -138c44 0 78 26 110 66
z" />
    <glyph glyph-name="hbar.flat" horiz-adv-x="532" 
d="M473 0h-120v316c0 42 -18 71 -62 71c-38 0 -75 -24 -110 -61v-326h-120v555h-64v83h64v65l120 19v-84h127v-83h-127v-133c40 37 90 71 154 71c90 0 138 -55 138 -145v-348z" />
    <glyph glyph-name="lslash.flat" horiz-adv-x="300" 
d="M209 0h-118v256l-77 -41v118l77 41v329l118 19v-284l77 42v-118l-77 -42v-320z" />
    <glyph glyph-name="kcommaaccent.flat" horiz-adv-x="495" 
d="M493 0h-141l-171 240v-240h-120v703l120 19v-439l157 200h136l-178 -218zM187 -82l99 25c29 -28 43 -54 43 -88c0 -38 -21 -79 -80 -127l-74 16c36 44 49 73 49 101c0 26 -10 45 -37 73z" />
    <glyph glyph-name="tcaron.flat" horiz-adv-x="350" 
d="M364 737c10 -24 16 -48 16 -72c0 -47 -27 -93 -67 -130l-59 12c22 37 31 64 31 97c0 24 -9 50 -23 79zM321 0c-19 -4 -41 -8 -76 -8c-95 0 -159 35 -159 145v248h-68v98h68v153l118 18v-171h109v-98h-109v-228c0 -39 18 -60 64 -60c14 0 27 1 38 4z" />
    <glyph glyph-name="tcommaaccent.flat" horiz-adv-x="350" 
d="M123 -82l99 25c29 -28 43 -54 43 -88c0 -38 -21 -79 -80 -127l-74 16c36 44 49 73 49 101c0 26 -10 45 -37 73zM321 0c-19 -4 -41 -8 -76 -8c-95 0 -159 35 -159 145v248h-68v98h68v153l118 18v-171h109v-98h-109v-228c0 -39 18 -60 64 -60c14 0 27 1 38 4z" />
    <glyph glyph-name="wacute.flat" horiz-adv-x="725" 
d="M535 671l-140 -124h-79l74 151zM706 483l-145 -484h-110l-89 319l-87 -319h-110l-146 484h126l83 -320l87 320h106l87 -319l83 319h115z" />
    <glyph glyph-name="wgrave.flat" horiz-adv-x="725" 
d="M706 483l-145 -484h-110l-89 319l-87 -319h-110l-146 484h126l83 -320l87 320h106l87 -319l83 319h115zM415 547h-79l-141 124l147 27z" />
    <glyph glyph-name="wcircumflex.flat" horiz-adv-x="725" 
d="M520 547h-76l-79 65l-79 -65h-76l99 144h112zM706 483l-145 -484h-110l-89 319l-87 -319h-110l-146 484h126l83 -320l87 320h106l87 -319l83 319h115z" />
    <glyph glyph-name="wdieresis.flat" horiz-adv-x="725" 
d="M518 550h-115v115h115v-115zM329 550h-115v115h115v-115zM706 483l-145 -484h-110l-89 319l-87 -319h-110l-146 484h126l83 -320l87 320h106l87 -319l83 319h115z" />
    <glyph glyph-name="yacute.flat" horiz-adv-x="498" 
d="M424 671l-140 -124h-79l74 151zM482 483l-184 -514c-42 -116 -98 -151 -185 -151c-26 0 -37 2 -49 5l-16 101c16 -4 32 -7 53 -7c38 0 67 16 85 61l8 20l-180 485h132l109 -336l107 336h120z" />
    <glyph glyph-name="ygrave.flat" horiz-adv-x="498" 
d="M482 483l-184 -514c-42 -116 -98 -151 -185 -151c-26 0 -37 2 -49 5l-16 101c16 -4 32 -7 53 -7c38 0 67 16 85 61l8 20l-180 485h132l109 -336l107 336h120zM305 547h-79l-141 124l147 27z" />
    <glyph glyph-name="ycircumflex.flat" horiz-adv-x="498" 
d="M410 547h-76l-79 65l-79 -65h-76l99 144h112zM482 483l-184 -514c-42 -116 -98 -151 -185 -151c-26 0 -37 2 -49 5l-16 101c16 -4 32 -7 53 -7c38 0 67 16 85 61l8 20l-180 485h132l109 -336l107 336h120z" />
    <glyph glyph-name="ydieresis.flat" horiz-adv-x="498" 
d="M407 550h-115v115h115v-115zM218 550h-115v115h115v-115zM482 483l-184 -514c-42 -116 -98 -151 -185 -151c-26 0 -37 2 -49 5l-16 101c16 -4 32 -7 53 -7c38 0 67 16 85 61l8 20l-180 485h132l109 -336l107 336h120z" />
    <glyph glyph-name="zacute.flat" horiz-adv-x="460" 
d="M400 671l-140 -124h-79l74 151zM421 0h-390v92l242 295h-226v96h371v-92l-242 -295h245v-96z" />
    <glyph glyph-name="zcaron.flat" horiz-adv-x="460" 
d="M75 691h76l79 -65l79 65h76l-99 -144h-112zM421 0h-390v92l242 295h-226v96h371v-92l-242 -295h245v-96z" />
    <glyph glyph-name="zdotaccent.flat" horiz-adv-x="460" 
d="M421 0h-390v92l242 295h-226v96h371v-92l-242 -295h245v-96zM289 550h-118v115h118v-115z" />
    <glyph glyph-name="f_f.flat" horiz-adv-x="649" 
d="M321 614c-12 2 -30 4 -50 4c-41 0 -63 -18 -63 -60v-75h100v-98h-100v-385h-119v385h-70v98h70v87c0 107 68 146 167 146c18 0 35 -1 49 -3zM648 614c-12 2 -30 4 -50 4c-41 0 -63 -18 -63 -60v-75h100v-98h-100v-385h-119v385h-70v98h70v87c0 107 68 146 167 146
c18 0 35 -1 49 -3z" />
    <glyph glyph-name="f_f_i.flat" horiz-adv-x="902" 
d="M847 632c0 -40 -32 -68 -71 -68c-40 0 -72 28 -72 68c0 41 32 70 72 70c39 0 71 -29 71 -70zM835 0h-120v483h120v-483zM321 614c-12 2 -30 4 -50 4c-41 0 -63 -18 -63 -60v-75h100v-98h-100v-385h-119v385h-70v98h70v87c0 107 68 146 167 146c18 0 35 -1 49 -3zM648 614
c-12 2 -30 4 -50 4c-41 0 -63 -18 -63 -60v-75h100v-98h-100v-385h-119v385h-70v98h70v87c0 107 68 146 167 146c18 0 35 -1 49 -3z" />
    <glyph glyph-name="f_f_l.flat" horiz-adv-x="902" 
d="M835 0h-120v703l120 19v-722zM321 614c-12 2 -30 4 -50 4c-41 0 -63 -18 -63 -60v-75h100v-98h-100v-385h-119v385h-70v98h70v87c0 107 68 146 167 146c18 0 35 -1 49 -3zM648 614c-12 2 -30 4 -50 4c-41 0 -63 -18 -63 -60v-75h100v-98h-100v-385h-119v385h-70v98h70v87
c0 107 68 146 167 146c18 0 35 -1 49 -3z" />
    <glyph glyph-name="fi.flat" horiz-adv-x="574" 
d="M519 632c0 -40 -32 -68 -71 -68c-40 0 -72 28 -72 68c0 41 32 70 72 70c39 0 71 -29 71 -70zM507 0h-120v483h120v-483zM321 614c-12 2 -30 4 -50 4c-41 0 -63 -18 -63 -60v-75h100v-98h-100v-385h-119v385h-70v98h70v87c0 107 68 146 167 146c18 0 35 -1 49 -3z" />
    <glyph glyph-name="fl.flat" horiz-adv-x="574" 
d="M507 0h-120v703l120 19v-722zM321 614c-12 2 -30 4 -50 4c-41 0 -63 -18 -63 -60v-75h100v-98h-100v-385h-119v385h-70v98h70v87c0 107 68 146 167 146c18 0 35 -1 49 -3z" />
    <glyph glyph-name="one.sup_flat" horiz-adv-x="360" 
d="M319 408h-262v73h92v217l-87 -33l-11 71l120 49h67v-304h81v-73z" />
    <glyph glyph-name="two.sup_flat" horiz-adv-x="360" 
d="M319 408h-279v71l137 122c29 26 42 41 42 65c0 27 -21 41 -50 41c-38 0 -75 -17 -109 -38l-12 79c35 21 79 38 135 38c85 0 133 -47 133 -107c0 -50 -28 -81 -77 -123l-84 -71h164v-77z" />
    <glyph glyph-name="three.sup_flat" horiz-adv-x="360" 
d="M322 510c0 -69 -65 -109 -156 -109c-49 0 -97 11 -131 29l13 73c35 -17 77 -29 117 -29c39 0 64 18 64 45c0 33 -25 45 -91 45h-37v67h39c61 0 82 17 82 43c0 24 -19 38 -56 38c-39 0 -79 -12 -111 -31l-13 72c36 19 77 33 132 33c91 0 141 -38 141 -97
c0 -45 -31 -74 -79 -89c55 -14 86 -42 86 -90z" />
    <glyph glyph-name="onehalf.flat" horiz-adv-x="810" 
d="M319 308h-262v73h92v217l-87 -33l-11 71l120 49h67v-304h81v-73zM769 0h-279v71l137 122c29 26 42 41 42 65c0 27 -21 41 -50 41c-38 0 -75 -17 -109 -38l-12 79c35 21 79 38 135 38c85 0 133 -47 133 -107c0 -50 -28 -81 -77 -123l-84 -71h164v-77zM245 -11l-66 18
l209 339l197 338l66 -18l-210 -340z" />
    <glyph glyph-name="onequarter.flat" horiz-adv-x="810" 
d="M775 72h-52v-76h-84v76h-175v60l145 241h114v-238h52v-63zM644 135v76l4 99h-7l-32 -65l-37 -62l-31 -47l3 -4l50 3h50zM319 308h-262v73h92v217l-87 -33l-11 71l120 49h67v-304h81v-73zM260 -11l-66 18l209 339l197 338l66 -18l-210 -340z" />
    <glyph glyph-name="threequarters.flat" horiz-adv-x="810" 
d="M775 72h-52v-76h-84v76h-175v60l145 241h114v-238h52v-63zM644 135v76l4 99h-7l-32 -65l-37 -62l-31 -47l3 -4l50 3h50zM322 410c0 -69 -65 -109 -156 -109c-49 0 -97 11 -131 29l13 73c35 -17 77 -29 117 -29c39 0 64 18 64 45c0 33 -25 45 -91 45h-37v67h39
c61 0 82 17 82 43c0 24 -19 38 -56 38c-39 0 -79 -12 -111 -31l-13 72c36 19 77 33 132 33c91 0 141 -38 141 -97c0 -45 -31 -74 -79 -89c55 -14 86 -42 86 -90zM250 -11l-66 18l209 339l197 338l66 -18l-210 -340z" />
    <glyph glyph-name="i.dot" horiz-adv-x="252" 
d="M198 632c0 -40 -32 -68 -71 -68c-40 0 -72 28 -72 68c0 41 32 70 72 70c39 0 71 -29 71 -70zM186 0h-120v483h120v-483z" />
    <glyph glyph-name="fraction" unicode="&#x2044;" horiz-adv-x="270" 
d="M-35 -11l-66 18l209 339l197 338l66 -18l-210 -340z" />
    <glyph glyph-name="acute" unicode="&#xb4;" horiz-adv-x="454" 
d="M344 671l-140 -124h-79l74 151z" />
    <glyph glyph-name="hungarumlaut" unicode="&#x2dd;" horiz-adv-x="454" 
d="M411 672l-131 -122h-74l74 148zM246 672l-131 -122h-74l75 148z" />
    <glyph glyph-name="caron.alt" horiz-adv-x="454" 
d="M276 714c10 -24 16 -48 16 -72c0 -47 -27 -93 -67 -130l-59 12c22 37 31 64 31 97c0 24 -9 50 -23 79z" />
    <glyph glyph-name="grave" unicode="`" horiz-adv-x="454" 
d="M329 547h-79l-141 124l147 27z" />
    <glyph glyph-name="circumflex" unicode="&#x2c6;" horiz-adv-x="454" 
d="M382 547h-76l-79 65l-79 -65h-76l99 144h112z" />
    <glyph glyph-name="caron" unicode="&#x2c7;" horiz-adv-x="454" 
d="M72 691h76l79 -65l79 65h76l-99 -144h-112z" />
    <glyph glyph-name="breve" unicode="&#x2d8;" horiz-adv-x="454" 
d="M377 673c-13 -79 -61 -126 -151 -126c-85 0 -135 46 -149 126l72 13c13 -38 35 -57 79 -57c42 0 64 19 77 57z" />
    <glyph glyph-name="tilde" unicode="&#x2dc;" horiz-adv-x="454" 
d="M387 675c-11 -89 -41 -126 -89 -126c-26 0 -43 8 -71 21c-38 18 -50 23 -65 23s-24 -10 -32 -48l-64 14c11 90 40 127 88 127c26 0 44 -8 71 -21c38 -19 50 -24 65 -24s24 11 32 48z" />
    <glyph glyph-name="macron" unicode="&#xaf;" horiz-adv-x="454" 
d="M369 564h-284v88h284v-88z" />
    <glyph glyph-name="dieresis" unicode="&#xa8;" horiz-adv-x="454" 
d="M379 550h-115v115h115v-115zM190 550h-115v115h115v-115z" />
    <glyph glyph-name="dotaccent" unicode="&#x2d9;" horiz-adv-x="454" 
d="M286 550h-118v115h118v-115z" />
    <glyph glyph-name="ring" unicode="&#x2da;" horiz-adv-x="454" 
d="M345 650c0 -60 -45 -105 -118 -105s-118 45 -118 105c0 59 45 106 118 106s118 -47 118 -106zM281 650c0 32 -22 59 -54 59s-54 -27 -54 -59c0 -33 22 -59 54 -59s54 26 54 59z" />
    <glyph glyph-name="commaaccent" unicode="&#x326;" horiz-adv-x="454" 
d="M152 -82l99 25c29 -28 43 -54 43 -88c0 -38 -21 -79 -80 -127l-74 16c36 44 49 73 49 101c0 26 -10 45 -37 73z" />
    <glyph glyph-name="cedilla" unicode="&#xb8;" horiz-adv-x="454" 
d="M324 -85l-131 -107h-79l65 135z" />
    <glyph glyph-name="ogonek" unicode="&#x2db;" horiz-adv-x="454" 
d="M232 39l60 -21l-27 -42c-19 -28 -29 -45 -29 -63c0 -21 13 -30 37 -30c14 0 27 2 42 6v-65c-26 -10 -56 -18 -87 -18c-53 0 -86 25 -86 76c0 34 19 71 60 121z" />
    </font>
</defs>
</svg>
