<?xml version="1.0" standalone="no"?>
<!DOCTYPE svg PUBLIC "-//W3C//DTD SVG 1.1//EN" "http://www.w3.org/Graphics/SVG/1.1/DTD/svg11.dtd" >
<svg xmlns="http://www.w3.org/2000/svg" xmlns:xlink="http://www.w3.org/1999/xlink" version="1.1">
<metadata>
Created by FontForge 20161116 at Thu Mar  6 06:29:22 2014
 By Jimmy Wärting
Copyright (C) 1996, 2009 Hoefler &#38; Co. http://www.typography.com
</metadata>
<defs>
<font id="Whitney-Bold" horiz-adv-x="536" >
  <font-face 
    font-family="Whitney Bold"
    font-weight="400"
    font-stretch="normal"
    units-per-em="1000"
    panose-1="0 0 0 0 0 0 0 0 0 0"
    ascent="800"
    descent="-200"
    x-height="490"
    cap-height="690"
    bbox="-106 -275 1004 1018"
    underline-thickness="50"
    underline-position="-100"
    stemh="133"
    stemv="151"
    unicode-range="U+0020-FB04"
  />
<missing-glyph horiz-adv-x="500" 
d="M0 -200v1000h500v-1000h-500zM71 750l179 -390l179 390h-358zM50 -76l172 376l-172 376v-752zM450 676l-172 -376l172 -376v752zM250 240l-179 -390h358z" />
    <glyph glyph-name="f_f" unicode="ff" horiz-adv-x="695" 
d="M346 595c-14 2 -32 5 -54 5c-41 0 -60 -20 -60 -60v-50h89l18 -123h-107v-367h-151v367h-68v123h68v64c0 119 73 163 186 163c23 0 43 -3 61 -6zM699 595c-14 2 -32 5 -54 5c-41 0 -60 -20 -60 -60v-50h89l18 -123h-107v-367h-151v367h-68v123h68v64
c0 119 73 163 186 163c23 0 43 -3 61 -6z" />
    <glyph glyph-name="fi" unicode="fi" horiz-adv-x="603" 
d="M558 635c0 -49 -37 -81 -86 -81c-48 0 -86 32 -86 81c0 50 38 83 86 83c49 0 86 -33 86 -83zM548 0h-152v490h152v-490zM346 595c-14 2 -32 5 -54 5c-41 0 -60 -20 -60 -60v-50h89l18 -123h-107v-367h-151v367h-68v123h68v64c0 119 73 163 186 163c23 0 43 -3 61 -6z" />
    <glyph glyph-name="fl" unicode="fl" horiz-adv-x="603" 
d="M548 0h-152v698l152 24v-722zM346 595c-14 2 -32 5 -54 5c-41 0 -60 -20 -60 -60v-50h89l18 -123h-107v-367h-151v367h-68v123h68v64c0 119 73 163 186 163c23 0 43 -3 61 -6z" />
    <glyph glyph-name="f_f_i" unicode="ffi" horiz-adv-x="957" 
d="M911 635c0 -49 -37 -81 -86 -81c-48 0 -86 32 -86 81c0 50 38 83 86 83c49 0 86 -33 86 -83zM901 0h-152v490h152v-490zM346 595c-14 2 -32 5 -54 5c-41 0 -60 -20 -60 -60v-50h89l18 -123h-107v-367h-151v367h-68v123h68v64c0 119 73 163 186 163c23 0 43 -3 61 -6z
M699 595c-14 2 -32 5 -54 5c-41 0 -60 -20 -60 -60v-50h89l18 -123h-107v-367h-151v367h-68v123h68v64c0 119 73 163 186 163c23 0 43 -3 61 -6z" />
    <glyph glyph-name="f_f_l" unicode="ffl" horiz-adv-x="957" 
d="M901 0h-152v698l152 24v-722zM346 595c-14 2 -32 5 -54 5c-41 0 -60 -20 -60 -60v-50h89l18 -123h-107v-367h-151v367h-68v123h68v64c0 119 73 163 186 163c23 0 43 -3 61 -6zM699 595c-14 2 -32 5 -54 5c-41 0 -60 -20 -60 -60v-50h89l18 -123h-107v-367h-151v367h-68
v123h68v64c0 119 73 163 186 163c23 0 43 -3 61 -6z" />
    <glyph glyph-name=".notdef" horiz-adv-x="500" 
d="M0 -200v1000h500v-1000h-500zM71 750l179 -390l179 390h-358zM50 -76l172 376l-172 376v-752zM450 676l-172 -376l172 -376v752zM250 240l-179 -390h358z" />
    <glyph glyph-name="A" unicode="A" horiz-adv-x="702" 
d="M13 0l248 693h188l240 -672l-173 -28l-51 150h-238l-46 -143h-168zM346 517l-78 -240h155z" />
    <glyph glyph-name="B" unicode="B" horiz-adv-x="593" 
d="M558 199c0 -133 -100 -199 -264 -199h-231v690h235c157 0 235 -67 235 -179c0 -75 -44 -121 -100 -146c75 -24 125 -72 125 -166zM380 492c0 46 -28 75 -94 75h-61v-156h57c64 0 98 31 98 81zM397 211c0 59 -38 90 -111 90h-61v-178h63c69 0 109 29 109 88z" />
    <glyph glyph-name="C" unicode="C" horiz-adv-x="601" 
d="M569 41c-55 -32 -119 -53 -200 -53c-206 0 -331 138 -331 356c0 214 131 358 339 358c73 0 132 -16 182 -45l-24 -154c-41 32 -89 56 -149 56c-108 0 -177 -82 -177 -214c0 -134 73 -214 181 -214c56 0 106 21 157 53z" />
    <glyph glyph-name="D" unicode="D" horiz-adv-x="705" 
d="M666 346c0 -205 -128 -346 -361 -346h-242v690h238c240 0 365 -139 365 -344zM494 345c0 145 -81 212 -198 212h-62v-424h62c122 0 198 64 198 212z" />
    <glyph glyph-name="E" unicode="E" 
d="M502 0h-439v690h430v-138h-262v-130h200l22 -137h-222v-146h271v-139z" />
    <glyph glyph-name="F" unicode="F" horiz-adv-x="503" 
d="M476 547h-243v-141h180l24 -143h-204v-263h-170v690h413v-143z" />
    <glyph glyph-name="G" unicode="G" horiz-adv-x="682" 
d="M630 60c-72 -47 -157 -73 -252 -73c-219 0 -340 144 -340 357c0 214 131 359 344 359c85 0 156 -20 211 -51l-23 -149c-52 33 -113 59 -184 59c-119 0 -177 -88 -177 -217c0 -130 60 -221 179 -221c38 0 65 8 93 22v123h-120l-20 127h289v-336z" />
    <glyph glyph-name="H" unicode="H" horiz-adv-x="707" 
d="M645 0h-172v280h-239v-280h-171v690h171v-261h239v261h172v-690z" />
    <glyph glyph-name="I" unicode="I" horiz-adv-x="305" 
d="M238 0h-171v690h171v-690z" />
    <glyph glyph-name="J" unicode="J" horiz-adv-x="425" 
d="M368 210c0 -157 -99 -217 -231 -217c-39 0 -77 4 -95 9l-23 144c22 -6 43 -11 81 -11c60 0 96 25 96 102v453h172v-480z" />
    <glyph glyph-name="K" unicode="K" horiz-adv-x="650" 
d="M651 21l-187 -28l-230 328v-321h-171v690h171v-295l213 295h198l-248 -322z" />
    <glyph glyph-name="L" unicode="L" horiz-adv-x="488" 
d="M469 0h-406v690h171v-542h212z" />
    <glyph glyph-name="M" unicode="M" horiz-adv-x="891" 
d="M848 0h-174l-30 462l-130 -463h-162l-130 463l-30 -462h-149l50 690h221l134 -475l135 475h215z" />
    <glyph glyph-name="M.alt" horiz-adv-x="885" 
d="M822 0h-163v456l-151 -459h-150l-150 459v-456h-145v690h229l154 -471l153 471h223v-690z" />
    <glyph glyph-name="N" unicode="N" horiz-adv-x="705" 
d="M642 0h-148l-272 413v-413h-159v690h166l254 -386v386h159v-690z" />
    <glyph glyph-name="O" unicode="O" horiz-adv-x="735" 
d="M697 346c0 -213 -130 -359 -331 -359c-198 0 -328 144 -328 357c0 214 130 359 330 359s329 -144 329 -357zM525 345c0 137 -58 224 -158 224c-99 0 -158 -87 -158 -224s59 -224 158 -224c100 0 158 87 158 224z" />
    <glyph glyph-name="P" unicode="P" horiz-adv-x="577" 
d="M556 465c0 -156 -111 -236 -278 -236h-44v-229h-171v690h222c168 0 271 -75 271 -225zM390 462c0 66 -39 99 -115 99h-43v-203h40c76 0 118 33 118 104z" />
    <glyph glyph-name="Q" unicode="Q" horiz-adv-x="735" 
d="M697 356c0 -144 -62 -249 -161 -302l161 -51l-32 -146l-387 139c-159 57 -240 166 -240 348c0 214 131 359 330 359c198 0 329 -136 329 -347zM525 344c0 133 -58 225 -158 225s-158 -92 -158 -225s59 -227 158 -227c101 0 158 94 158 227z" />
    <glyph glyph-name="Q.alt" horiz-adv-x="747" 
d="M722 142l-29 -156l-108 85c-56 -51 -131 -81 -219 -81c-199 0 -329 141 -329 354c0 214 131 359 331 359c207 0 329 -147 329 -351c0 -63 -12 -120 -34 -170zM528 349c0 133 -58 220 -159 220c-102 0 -160 -87 -160 -225s59 -225 160 -225c42 0 76 15 102 42l-152 115
l170 38l35 -28c2 20 4 41 4 63z" />
    <glyph glyph-name="R" unicode="R" horiz-adv-x="616" 
d="M608 22l-181 -29l-151 244h-43v-237h-170v690h241c167 0 265 -76 265 -218c0 -96 -48 -161 -130 -196zM401 462c0 64 -40 99 -114 99h-55v-201h53c74 0 116 36 116 102z" />
    <glyph glyph-name="S" unicode="S" horiz-adv-x="553" 
d="M523 208c0 -150 -110 -216 -247 -216c-93 0 -171 20 -241 52l25 146c71 -38 150 -64 219 -64c49 0 83 21 83 62c0 39 -20 57 -117 94c-138 53 -198 98 -198 212c0 133 104 204 236 204c90 0 148 -17 208 -46l-26 -144c-62 36 -127 56 -180 56c-52 0 -77 -22 -77 -54
c0 -35 19 -52 105 -85c151 -55 210 -107 210 -217z" />
    <glyph glyph-name="T" unicode="T" horiz-adv-x="609" 
d="M595 545h-203v-545h-172v545h-195v145h546z" />
    <glyph glyph-name="U" unicode="U" horiz-adv-x="688" 
d="M633 274c0 -192 -124 -285 -291 -285c-169 0 -287 91 -287 284v417h172v-416c0 -89 40 -141 117 -141c78 0 117 51 117 139v418h172v-416z" />
    <glyph glyph-name="U.alt" horiz-adv-x="698" 
d="M491 0l-10 66c-64 -45 -127 -73 -205 -73c-130 0 -216 63 -216 223v474h172v-450c0 -68 30 -101 94 -101c43 0 90 21 138 57v494h171v-690h-144z" />
    <glyph glyph-name="V" unicode="V" horiz-adv-x="692" 
d="M680 690l-245 -694h-184l-238 673l183 28l157 -484l149 477h178z" />
    <glyph glyph-name="W" unicode="W" horiz-adv-x="990" 
d="M972 690l-188 -691h-173l-119 446l-119 -446h-172l-182 669l185 29l104 -439l112 432h172l112 -432l98 432h170z" />
    <glyph glyph-name="W.alt" horiz-adv-x="1011" 
d="M998 690l-224 -693h-172l-99 297l-104 -297h-168l-217 672l181 28l144 -477l96 274l-56 177l182 28l134 -479l132 470h171z" />
    <glyph glyph-name="X" unicode="X" horiz-adv-x="661" 
d="M648 22l-183 -29l-142 245l-136 -238h-175l217 351l-199 317l182 29l125 -219l118 212h177l-201 -326z" />
    <glyph glyph-name="Y" unicode="Y" horiz-adv-x="670" 
d="M669 690l-249 -436v-254h-171v252l-239 420l182 25l150 -286l145 279h182z" />
    <glyph glyph-name="Z" unicode="Z" horiz-adv-x="611" 
d="M578 0h-539v124l321 430h-287l-21 136h517v-124l-321 -430h309z" />
    <glyph glyph-name="a" unicode="a" horiz-adv-x="507" 
d="M459 0h-134l-10 61c-40 -42 -87 -71 -154 -71c-78 0 -133 47 -133 136c0 115 88 169 280 186v9c0 43 -24 62 -74 62c-55 0 -106 -14 -158 -37l-18 114c56 23 119 38 199 38c135 0 202 -45 202 -170v-328zM308 135v104c-103 -16 -131 -50 -131 -93c0 -31 19 -48 48 -48
c28 0 56 13 83 37z" />
    <glyph glyph-name="b" unicode="b" horiz-adv-x="541" 
d="M510 258c0 -182 -97 -264 -248 -264c-79 0 -153 13 -210 35v669l151 24v-286c31 32 73 64 131 64c100 0 176 -76 176 -242zM359 248c0 82 -30 117 -73 117c-32 0 -58 -19 -83 -47v-193c20 -7 33 -10 56 -10c58 0 100 36 100 133z" />
    <glyph glyph-name="c" unicode="c" horiz-adv-x="452" 
d="M421 34c-47 -29 -96 -43 -156 -43c-141 0 -237 92 -237 250c0 172 110 257 244 257c59 0 106 -15 145 -37l-20 -129c-38 24 -70 36 -110 36c-62 0 -106 -41 -106 -123c0 -84 49 -124 110 -124c36 0 71 10 112 37z" />
    <glyph glyph-name="d" unicode="d" horiz-adv-x="544" 
d="M492 0h-134l-10 64c-33 -37 -78 -74 -141 -74c-100 0 -177 76 -177 241c0 187 99 263 207 263c45 0 76 -7 104 -17v221l151 24v-722zM341 174v187c-22 10 -39 14 -71 14c-50 0 -88 -39 -88 -133c0 -84 32 -118 75 -118c32 0 58 21 84 50z" />
    <glyph glyph-name="e" unicode="e" horiz-adv-x="505" 
d="M475 45c-53 -34 -118 -55 -195 -55c-147 0 -252 79 -252 253c0 160 98 257 231 257c151 0 217 -112 217 -254c0 -15 -1 -31 -2 -39h-296c8 -78 54 -107 121 -107c54 0 107 20 161 52zM255 402c-43 0 -73 -37 -78 -112h155c-5 74 -31 112 -77 112z" />
    <glyph glyph-name="f" unicode="f" horiz-adv-x="341" 
d="M346 595c-14 2 -32 5 -54 5c-41 0 -60 -20 -60 -60v-50h89l18 -123h-107v-367h-151v367h-68v123h68v64c0 119 73 163 186 163c23 0 43 -3 61 -6z" />
    <glyph glyph-name="g" unicode="g" horiz-adv-x="534" 
d="M514 -6c0 -107 -117 -176 -274 -176c-138 0 -236 42 -236 117c0 43 26 75 80 105c-18 15 -27 34 -27 54c0 31 25 61 73 88c-61 27 -94 78 -94 142c0 107 88 174 206 174c62 0 113 -18 151 -47l115 44l19 -112l-86 -2c6 -17 9 -34 9 -52c0 -106 -92 -168 -203 -168
c-16 0 -31 0 -45 2c-9 -8 -13 -15 -13 -22c0 -14 12 -18 78 -26l90 -6c98 -10 157 -41 157 -115zM232 -1c-36 3 -53 5 -77 9c-20 -19 -28 -36 -28 -54c0 -34 37 -58 125 -58c79 0 124 26 124 58c0 23 -18 33 -71 39zM315 329c0 46 -27 80 -72 80c-44 0 -69 -36 -69 -83
c0 -45 25 -78 69 -78c46 0 72 34 72 81z" />
    <glyph glyph-name="g.alt" horiz-adv-x="541" 
d="M489 30c0 -140 -80 -212 -237 -212c-78 0 -137 15 -190 36l22 114c45 -23 98 -38 149 -38c66 0 105 29 105 95v42c-32 -31 -73 -62 -131 -62c-101 0 -177 75 -177 234c0 176 98 257 248 257c79 0 154 -13 211 -35v-431zM338 180v185c-20 7 -33 9 -56 9
c-58 0 -100 -35 -100 -128c0 -78 30 -113 73 -113c31 0 57 20 83 47z" />
    <glyph glyph-name="h" unicode="h" horiz-adv-x="537" 
d="M488 0h-152v307c0 35 -14 59 -50 59c-29 0 -56 -17 -83 -44v-322h-151v698l151 24v-293c41 40 86 71 146 71c91 0 139 -56 139 -152v-348z" />
    <glyph glyph-name="i" unicode="i" horiz-adv-x="262" 
d="M217 635c0 -49 -37 -81 -86 -81c-48 0 -86 32 -86 81c0 50 38 83 86 83c49 0 86 -33 86 -83zM207 0h-152v490h152v-490z" />
    <glyph glyph-name="j" unicode="j" horiz-adv-x="263" 
d="M217 635c0 -49 -37 -81 -86 -81c-48 0 -86 32 -86 81c0 50 38 83 86 83c49 0 86 -33 86 -83zM207 -14c0 -122 -70 -168 -171 -168c-21 0 -44 2 -54 4l-18 118c11 -2 21 -4 36 -4c34 0 55 14 55 62v492h152v-504z" />
    <glyph glyph-name="k" unicode="k" horiz-adv-x="505" 
d="M502 15l-158 -22l-141 236v-229h-151v698l151 24v-432l129 200h166l-156 -225z" />
    <glyph glyph-name="l" unicode="l" horiz-adv-x="262" 
d="M207 0h-152v698l152 24v-722z" />
    <glyph glyph-name="m" unicode="m" horiz-adv-x="811" 
d="M762 0h-152v307c0 35 -13 59 -48 59c-27 0 -53 -17 -80 -43v-323h-151v307c0 35 -13 59 -48 59c-28 0 -53 -17 -80 -43v-323h-151v490h133l11 -67c44 45 89 77 152 77c67 0 104 -33 122 -77c44 44 92 77 153 77c91 0 139 -56 139 -152v-348z" />
    <glyph glyph-name="n" unicode="n" horiz-adv-x="537" 
d="M488 0h-152v307c0 35 -14 59 -50 59c-29 0 -56 -17 -83 -44v-322h-151v490h133l11 -67c44 44 91 77 153 77c91 0 139 -56 139 -152v-348z" />
    <glyph glyph-name="o" unicode="o" horiz-adv-x="527" 
d="M499 245c0 -157 -101 -255 -237 -255c-135 0 -234 97 -234 254s100 256 235 256c136 0 236 -98 236 -255zM353 244c0 79 -32 133 -90 133s-89 -52 -89 -132c0 -79 32 -133 89 -133c58 0 90 53 90 132z" />
    <glyph glyph-name="p" unicode="p" horiz-adv-x="544" 
d="M513 258c0 -186 -99 -263 -207 -263c-44 0 -75 8 -103 17v-175l-151 -23v676h133l10 -64c34 37 78 74 141 74c101 0 177 -76 177 -242zM361 248c0 82 -31 117 -74 117c-33 0 -58 -20 -84 -50v-186c21 -10 39 -15 69 -15c51 0 89 39 89 134z" />
    <glyph glyph-name="q" unicode="q" horiz-adv-x="541" 
d="M489 -163l-151 -23v239c-32 -31 -73 -63 -131 -63c-101 0 -177 76 -177 241c0 182 98 265 248 265c79 0 154 -13 211 -35v-624zM338 172v193c-20 7 -33 9 -56 9c-58 0 -100 -36 -100 -132c0 -84 30 -118 73 -118c31 0 57 20 83 48z" />
    <glyph glyph-name="r" unicode="r" horiz-adv-x="377" 
d="M368 346c-73 -5 -128 -34 -165 -74v-272h-151v490h132l16 -97c30 56 71 102 143 107z" />
    <glyph glyph-name="s" unicode="s" horiz-adv-x="464" 
d="M435 151c0 -104 -71 -160 -201 -160c-78 0 -151 22 -202 48l18 116c58 -36 129 -58 185 -58c42 0 62 15 62 38c0 24 -14 36 -83 53c-123 32 -175 66 -175 158c0 91 68 153 189 153c66 0 129 -13 180 -36l-19 -116c-53 29 -113 46 -161 46c-35 0 -52 -13 -52 -32
c0 -21 14 -32 83 -51c130 -34 176 -68 176 -159z" />
    <glyph glyph-name="t" unicode="t" horiz-adv-x="363" 
d="M344 3c-24 -7 -47 -10 -87 -10c-105 0 -178 38 -178 163v211h-65v123h65v146l150 24v-170h93l19 -123h-112v-187c0 -39 20 -58 60 -58c13 0 26 2 37 5z" />
    <glyph glyph-name="u" unicode="u" horiz-adv-x="537" 
d="M485 0h-133l-11 67c-45 -44 -92 -77 -153 -77c-91 0 -139 56 -139 151v349h151v-307c0 -35 15 -60 51 -60c29 0 56 17 83 44v323h151v-490z" />
    <glyph glyph-name="v" unicode="v" horiz-adv-x="506" 
d="M498 490l-170 -492h-151l-168 480l162 19l91 -309l88 302h148z" />
    <glyph glyph-name="w" unicode="w" horiz-adv-x="725" 
d="M715 490l-137 -491h-145l-71 280l-70 -280h-146l-134 479l156 19l67 -295l69 288h136l70 -287l64 287h141z" />
    <glyph glyph-name="x" unicode="x" horiz-adv-x="496" 
d="M481 12l-157 -19l-84 155l-81 -148h-144l148 242l-141 236l158 19l76 -142l74 135h143l-141 -231z" />
    <glyph glyph-name="y" unicode="y" horiz-adv-x="510" 
d="M502 490l-175 -502c-44 -127 -103 -170 -208 -170c-32 0 -45 3 -59 6l-20 122c17 -5 32 -8 60 -8c35 0 66 13 83 51l4 10l-178 479l162 19l94 -308l89 301h148z" />
    <glyph glyph-name="z" unicode="z" horiz-adv-x="467" 
d="M443 0h-416v114l217 258h-191l-18 118h396v-115l-216 -257h209z" />
    <glyph glyph-name="Aacute" unicode="&#xc1;" horiz-adv-x="702" 
d="M13 0l248 693h188l240 -672l-173 -28l-51 150h-238l-46 -143h-168zM535 872l-147 -121h-96l60 151zM346 517l-78 -240h155z" />
    <glyph glyph-name="aacute" unicode="&#xe1;" horiz-adv-x="507" 
d="M459 0h-134l-10 61c-40 -42 -87 -71 -154 -71c-78 0 -133 47 -133 136c0 115 88 169 280 186v9c0 43 -24 62 -74 62c-55 0 -106 -14 -158 -37l-18 114c56 23 119 38 199 38c135 0 202 -45 202 -170v-328zM308 135v104c-103 -16 -131 -50 -131 -93c0 -31 19 -48 48 -48
c28 0 56 13 83 37zM437 668l-147 -121h-96l60 151z" />
    <glyph glyph-name="Abreve" unicode="&#x102;" horiz-adv-x="702" 
d="M13 0l248 693h188l240 -672l-173 -28l-51 150h-238l-46 -143h-168zM512 886c-13 -84 -65 -136 -159 -136c-93 0 -145 51 -158 136l83 13c15 -40 36 -56 75 -56s60 16 75 56zM346 517l-78 -240h155z" />
    <glyph glyph-name="abreve" unicode="&#x103;" horiz-adv-x="507" 
d="M459 0h-134l-10 61c-40 -42 -87 -71 -154 -71c-78 0 -133 47 -133 136c0 115 88 169 280 186v9c0 43 -24 62 -74 62c-55 0 -106 -14 -158 -37l-18 114c56 23 119 38 199 38c135 0 202 -45 202 -170v-328zM308 135v104c-103 -16 -131 -50 -131 -93c0 -31 19 -48 48 -48
c28 0 56 13 83 37zM415 682c-13 -84 -65 -136 -159 -136c-93 0 -145 51 -158 136l83 13c15 -40 36 -56 75 -56s60 16 75 56z" />
    <glyph glyph-name="Acircumflex" unicode="&#xc2;" horiz-adv-x="702" 
d="M13 0l248 693h188l240 -672l-173 -28l-51 150h-238l-46 -143h-168zM523 751h-96l-74 58l-74 -58h-96l100 147h140zM346 517l-78 -240h155z" />
    <glyph glyph-name="acircumflex" unicode="&#xe2;" horiz-adv-x="507" 
d="M459 0h-134l-10 61c-40 -42 -87 -71 -154 -71c-78 0 -133 47 -133 136c0 115 88 169 280 186v9c0 43 -24 62 -74 62c-55 0 -106 -14 -158 -37l-18 114c56 23 119 38 199 38c135 0 202 -45 202 -170v-328zM308 135v104c-103 -16 -131 -50 -131 -93c0 -31 19 -48 48 -48
c28 0 56 13 83 37zM425 547h-96l-74 58l-74 -58h-96l100 147h140z" />
    <glyph glyph-name="Adieresis" unicode="&#xc4;" horiz-adv-x="702" 
d="M13 0l248 693h188l240 -672l-173 -28l-51 150h-238l-46 -143h-168zM346 517l-78 -240h155zM517 752h-130v131h130v-131zM319 752h-130v131h130v-131z" />
    <glyph glyph-name="adieresis" unicode="&#xe4;" horiz-adv-x="507" 
d="M459 0h-134l-10 61c-40 -42 -87 -71 -154 -71c-78 0 -133 47 -133 136c0 115 88 169 280 186v9c0 43 -24 62 -74 62c-55 0 -106 -14 -158 -37l-18 114c56 23 119 38 199 38c135 0 202 -45 202 -170v-328zM308 135v104c-103 -16 -131 -50 -131 -93c0 -31 19 -48 48 -48
c28 0 56 13 83 37zM420 548h-130v131h130v-131zM222 548h-130v131h130v-131z" />
    <glyph glyph-name="Agrave" unicode="&#xc0;" horiz-adv-x="702" 
d="M13 0l248 693h188l240 -672l-173 -28l-51 150h-238l-46 -143h-168zM416 751h-100l-146 121l185 30zM346 517l-78 -240h155z" />
    <glyph glyph-name="agrave" unicode="&#xe0;" horiz-adv-x="507" 
d="M459 0h-134l-10 61c-40 -42 -87 -71 -154 -71c-78 0 -133 47 -133 136c0 115 88 169 280 186v9c0 43 -24 62 -74 62c-55 0 -106 -14 -158 -37l-18 114c56 23 119 38 199 38c135 0 202 -45 202 -170v-328zM308 135v104c-103 -16 -131 -50 -131 -93c0 -31 19 -48 48 -48
c28 0 56 13 83 37zM319 547h-100l-146 121l185 30z" />
    <glyph glyph-name="Amacron" unicode="&#x100;" horiz-adv-x="702" 
d="M13 0l248 693h188l240 -672l-173 -28l-51 150h-238l-46 -143h-168zM505 761h-304v105h304v-105zM346 517l-78 -240h155z" />
    <glyph glyph-name="amacron" unicode="&#x101;" horiz-adv-x="507" 
d="M459 0h-134l-10 61c-40 -42 -87 -71 -154 -71c-78 0 -133 47 -133 136c0 115 88 169 280 186v9c0 43 -24 62 -74 62c-55 0 -106 -14 -158 -37l-18 114c56 23 119 38 199 38c135 0 202 -45 202 -170v-328zM308 135v104c-103 -16 -131 -50 -131 -93c0 -31 19 -48 48 -48
c28 0 56 13 83 37zM408 557h-304v105h304v-105z" />
    <glyph glyph-name="Aogonek" unicode="&#x104;" horiz-adv-x="702" 
d="M13 0l248 693h188l240 -672l-31 -5l-25 -40c-17 -27 -24 -42 -24 -59c0 -20 12 -30 35 -30c14 0 27 3 42 7v-74c-30 -13 -66 -23 -103 -23c-56 0 -91 28 -91 81c0 32 17 68 55 120l-31 -5l-51 150h-238l-46 -143h-168zM346 517l-78 -240h155z" />
    <glyph glyph-name="aogonek" unicode="&#x105;" horiz-adv-x="507" 
d="M459 0h-27l-15 -24c-17 -27 -24 -42 -24 -59c0 -20 12 -30 35 -30c14 0 27 3 42 7v-74c-30 -13 -66 -23 -103 -23c-56 0 -91 28 -91 81c0 32 17 69 57 122h-8l-10 61c-40 -42 -87 -71 -154 -71c-78 0 -133 47 -133 136c0 115 88 169 280 186v9c0 43 -24 62 -74 62
c-55 0 -106 -14 -158 -37l-18 114c56 23 119 38 199 38c135 0 202 -45 202 -170v-328zM308 135v104c-103 -16 -131 -50 -131 -93c0 -31 19 -48 48 -48c28 0 56 13 83 37z" />
    <glyph glyph-name="Aring" unicode="&#xc5;" horiz-adv-x="702" 
d="M484 732c0 -26 -9 -49 -25 -68l230 -643l-172 -28l-51 150h-240l-46 -143h-167l235 660c-19 19 -28 44 -28 72c0 59 45 108 132 108c86 0 132 -49 132 -108zM346 517l-79 -240h156zM402 732c0 31 -20 58 -50 58s-50 -27 -50 -58c0 -32 20 -58 50 -58s50 26 50 58z" />
    <glyph glyph-name="aring" unicode="&#xe5;" horiz-adv-x="507" 
d="M459 0h-134l-10 61c-40 -42 -87 -71 -154 -71c-78 0 -133 47 -133 136c0 115 88 169 280 186v9c0 43 -24 62 -74 62c-55 0 -106 -14 -158 -37l-18 114c56 23 119 38 199 38c135 0 202 -45 202 -170v-328zM308 135v104c-103 -16 -131 -50 -131 -93c0 -31 19 -48 48 -48
c28 0 56 13 83 37zM388 653c0 -60 -45 -108 -132 -108s-132 48 -132 108c0 59 45 108 132 108s132 -49 132 -108zM306 653c0 31 -20 58 -50 58s-50 -27 -50 -58c0 -32 20 -58 50 -58s50 26 50 58z" />
    <glyph glyph-name="Aringacute" unicode="&#x1fa;" horiz-adv-x="702" 
d="M484 732c0 -26 -9 -49 -25 -68l230 -643l-172 -28l-51 150h-240l-46 -143h-167l235 660c-19 19 -28 44 -28 72c0 59 45 108 132 108c86 0 132 -49 132 -108zM533 988l-147 -121h-96l60 151zM346 517l-79 -240h156zM402 732c0 31 -20 58 -50 58s-50 -27 -50 -58
c0 -32 20 -58 50 -58s50 26 50 58z" />
    <glyph glyph-name="aringacute" unicode="&#x1fb;" horiz-adv-x="507" 
d="M459 0h-134l-10 61c-40 -42 -87 -71 -154 -71c-78 0 -133 47 -133 136c0 115 88 169 280 186v9c0 43 -24 62 -74 62c-55 0 -106 -14 -158 -37l-18 114c56 23 119 38 199 38c135 0 202 -45 202 -170v-328zM308 135v104c-103 -16 -131 -50 -131 -93c0 -31 19 -48 48 -48
c28 0 56 13 83 37zM448 914l-147 -121h-96l60 151zM390 653c0 -60 -45 -108 -132 -108s-132 48 -132 108c0 59 45 108 132 108s132 -49 132 -108zM308 653c0 31 -20 58 -50 58s-50 -27 -50 -58c0 -32 20 -58 50 -58s50 26 50 58z" />
    <glyph glyph-name="Atilde" unicode="&#xc3;" horiz-adv-x="702" 
d="M13 0l248 693h188l240 -672l-173 -28l-51 150h-238l-46 -143h-168zM524 890c-13 -103 -45 -139 -95 -139c-26 0 -44 8 -71 20c-38 16 -50 21 -65 21s-24 -9 -32 -44l-72 15c14 104 46 140 96 140c26 0 43 -7 71 -20c38 -17 50 -21 65 -21s24 10 32 45zM346 517l-78 -240
h155z" />
    <glyph glyph-name="atilde" unicode="&#xe3;" horiz-adv-x="507" 
d="M459 0h-134l-10 61c-40 -42 -87 -71 -154 -71c-78 0 -133 47 -133 136c0 115 88 169 280 186v9c0 43 -24 62 -74 62c-55 0 -106 -14 -158 -37l-18 114c56 23 119 38 199 38c135 0 202 -45 202 -170v-328zM308 135v104c-103 -16 -131 -50 -131 -93c0 -31 19 -48 48 -48
c28 0 56 13 83 37zM426 686c-13 -103 -45 -139 -95 -139c-26 0 -44 8 -71 20c-38 16 -50 21 -65 21s-24 -9 -32 -44l-72 15c14 104 46 140 96 140c26 0 43 -7 71 -20c38 -17 50 -21 65 -21s24 10 32 45z" />
    <glyph glyph-name="Cacute" unicode="&#x106;" horiz-adv-x="601" 
d="M538 872l-147 -121h-96l60 151zM569 41c-55 -32 -119 -53 -200 -53c-206 0 -331 138 -331 356c0 214 131 358 339 358c73 0 132 -16 182 -45l-24 -154c-41 32 -89 56 -149 56c-108 0 -177 -82 -177 -214c0 -134 73 -214 181 -214c56 0 106 21 157 53z" />
    <glyph glyph-name="cacute" unicode="&#x107;" horiz-adv-x="452" 
d="M447 668l-147 -121h-96l60 151zM421 34c-47 -29 -96 -43 -156 -43c-141 0 -237 92 -237 250c0 172 110 257 244 257c59 0 106 -15 145 -37l-20 -129c-38 24 -70 36 -110 36c-62 0 -106 -41 -106 -123c0 -84 49 -124 110 -124c36 0 71 10 112 37z" />
    <glyph glyph-name="Ccaron" unicode="&#x10c;" horiz-adv-x="601" 
d="M187 898h96l74 -58l74 58h96l-100 -147h-140zM569 41c-55 -32 -119 -53 -200 -53c-206 0 -331 138 -331 356c0 214 131 358 339 358c73 0 132 -16 182 -45l-24 -154c-41 32 -89 56 -149 56c-108 0 -177 -82 -177 -214c0 -134 73 -214 181 -214c56 0 106 21 157 53z" />
    <glyph glyph-name="ccaron" unicode="&#x10d;" horiz-adv-x="452" 
d="M95 694h96l74 -58l74 58h96l-100 -147h-140zM421 34c-47 -29 -96 -43 -156 -43c-141 0 -237 92 -237 250c0 172 110 257 244 257c59 0 106 -15 145 -37l-20 -129c-38 24 -70 36 -110 36c-62 0 -106 -41 -106 -123c0 -84 49 -124 110 -124c36 0 71 10 112 37z" />
    <glyph glyph-name="Ccedilla" unicode="&#xc7;" horiz-adv-x="601" 
d="M569 41c-55 -32 -119 -53 -200 -53c-206 0 -331 138 -331 356c0 214 131 358 339 358c73 0 132 -16 182 -45l-24 -154c-41 32 -89 56 -149 56c-108 0 -177 -82 -177 -214c0 -134 73 -214 181 -214c56 0 106 21 157 53zM458 -89l-139 -106h-97l54 137z" />
    <glyph glyph-name="ccedilla" unicode="&#xe7;" horiz-adv-x="452" 
d="M421 34c-47 -29 -96 -43 -156 -43c-141 0 -237 92 -237 250c0 172 110 257 244 257c59 0 106 -15 145 -37l-20 -129c-38 24 -70 36 -110 36c-62 0 -106 -41 -106 -123c0 -84 49 -124 110 -124c36 0 71 10 112 37zM367 -81l-139 -106h-97l54 137z" />
    <glyph glyph-name="Cdotaccent" unicode="&#x10a;" horiz-adv-x="601" 
d="M569 41c-55 -32 -119 -53 -200 -53c-206 0 -331 138 -331 356c0 214 131 358 339 358c73 0 132 -16 182 -45l-24 -154c-41 32 -89 56 -149 56c-108 0 -177 -82 -177 -214c0 -134 73 -214 181 -214c56 0 106 21 157 53zM425 752h-135v131h135v-131z" />
    <glyph glyph-name="cdotaccent" unicode="&#x10b;" horiz-adv-x="452" 
d="M421 34c-47 -29 -96 -43 -156 -43c-141 0 -237 92 -237 250c0 172 110 257 244 257c59 0 106 -15 145 -37l-20 -129c-38 24 -70 36 -110 36c-62 0 -106 -41 -106 -123c0 -84 49 -124 110 -124c36 0 71 10 112 37zM333 548h-135v131h135v-131z" />
    <glyph glyph-name="Dcaron" unicode="&#x10e;" horiz-adv-x="705" 
d="M164 888h96l74 -58l74 58h96l-100 -147h-140zM666 346c0 -205 -128 -346 -361 -346h-242v690h238c240 0 365 -139 365 -344zM494 345c0 145 -81 212 -198 212h-62v-424h62c122 0 198 64 198 212z" />
    <glyph glyph-name="dcaron" unicode="&#x10f;" horiz-adv-x="544" 
d="M656 723c8 -24 12 -48 12 -72c0 -48 -25 -97 -68 -138l-71 15c19 38 26 66 26 101c0 22 -7 49 -19 78zM492 0h-134l-10 64c-33 -37 -78 -74 -141 -74c-100 0 -177 76 -177 241c0 187 99 263 207 263c45 0 76 -7 104 -17v221l151 24v-722zM341 174v187
c-22 10 -39 14 -71 14c-50 0 -88 -39 -88 -133c0 -84 32 -118 75 -118c32 0 58 21 84 50z" />
    <glyph glyph-name="Dcroat" unicode="&#x110;" horiz-adv-x="733" 
d="M696 346c0 -205 -128 -346 -361 -346h-243v283h-63l-23 143h86v264h238c240 0 366 -139 366 -344zM523 345c0 145 -80 212 -198 212h-66v-134h122v-138h-122v-152h66c122 0 198 64 198 212z" />
    <glyph glyph-name="dcroat" unicode="&#x111;" horiz-adv-x="544" 
d="M492 0h-134l-10 64c-33 -37 -78 -74 -141 -74c-100 0 -177 76 -177 241c0 187 99 263 207 263c45 0 76 -7 104 -17v72h-114l-15 93h129v56l151 24v-80h65v-93h-65v-549zM341 174v187c-22 10 -39 14 -71 14c-50 0 -88 -39 -88 -133c0 -84 32 -118 75 -118
c32 0 58 21 84 50z" />
    <glyph glyph-name="Eacute" unicode="&#xc9;" 
d="M463 862l-147 -121h-96l60 151zM502 0h-439v690h430v-138h-262v-130h200l22 -137h-222v-146h271v-139z" />
    <glyph glyph-name="eacute" unicode="&#xe9;" horiz-adv-x="505" 
d="M475 45c-53 -34 -118 -55 -195 -55c-147 0 -252 79 -252 253c0 160 98 257 231 257c151 0 217 -112 217 -254c0 -15 -1 -31 -2 -39h-296c8 -78 54 -107 121 -107c54 0 107 20 161 52zM442 668l-147 -121h-96l60 151zM255 402c-43 0 -73 -37 -78 -112h155
c-5 74 -31 112 -77 112z" />
    <glyph glyph-name="Ebreve" unicode="&#x114;" 
d="M502 0h-439v690h430v-138h-262v-130h200l22 -137h-222v-146h271v-139zM440 876c-13 -84 -65 -136 -159 -136c-93 0 -145 51 -158 136l83 13c15 -40 36 -56 75 -56s60 16 75 56z" />
    <glyph glyph-name="ebreve" unicode="&#x115;" horiz-adv-x="505" 
d="M475 45c-53 -34 -118 -55 -195 -55c-147 0 -252 79 -252 253c0 160 98 257 231 257c151 0 217 -112 217 -254c0 -15 -1 -31 -2 -39h-296c8 -78 54 -107 121 -107c54 0 107 20 161 52zM420 682c-13 -84 -65 -136 -159 -136c-93 0 -145 51 -158 136l83 13
c15 -40 36 -56 75 -56s60 16 75 56zM255 402c-43 0 -73 -37 -78 -112h155c-5 74 -31 112 -77 112z" />
    <glyph glyph-name="Ecaron" unicode="&#x11a;" 
d="M111 888h96l74 -58l74 58h96l-100 -147h-140zM502 0h-439v690h430v-138h-262v-130h200l22 -137h-222v-146h271v-139z" />
    <glyph glyph-name="ecaron" unicode="&#x11b;" horiz-adv-x="505" 
d="M475 45c-53 -34 -118 -55 -195 -55c-147 0 -252 79 -252 253c0 160 98 257 231 257c151 0 217 -112 217 -254c0 -15 -1 -31 -2 -39h-296c8 -78 54 -107 121 -107c54 0 107 20 161 52zM91 694h96l74 -58l74 58h96l-100 -147h-140zM255 402c-43 0 -73 -37 -78 -112h155
c-5 74 -31 112 -77 112z" />
    <glyph glyph-name="Ecircumflex" unicode="&#xca;" 
d="M451 741h-96l-74 58l-74 -58h-96l100 147h140zM502 0h-439v690h430v-138h-262v-130h200l22 -137h-222v-146h271v-139z" />
    <glyph glyph-name="ecircumflex" unicode="&#xea;" horiz-adv-x="505" 
d="M475 45c-53 -34 -118 -55 -195 -55c-147 0 -252 79 -252 253c0 160 98 257 231 257c151 0 217 -112 217 -254c0 -15 -1 -31 -2 -39h-296c8 -78 54 -107 121 -107c54 0 107 20 161 52zM430 547h-96l-74 58l-74 -58h-96l100 147h140zM255 402c-43 0 -73 -37 -78 -112h155
c-5 74 -31 112 -77 112z" />
    <glyph glyph-name="Edieresis" unicode="&#xcb;" 
d="M445 742h-130v131h130v-131zM247 742h-130v131h130v-131zM502 0h-439v690h430v-138h-262v-130h200l22 -137h-222v-146h271v-139z" />
    <glyph glyph-name="edieresis" unicode="&#xeb;" horiz-adv-x="505" 
d="M475 45c-53 -34 -118 -55 -195 -55c-147 0 -252 79 -252 253c0 160 98 257 231 257c151 0 217 -112 217 -254c0 -15 -1 -31 -2 -39h-296c8 -78 54 -107 121 -107c54 0 107 20 161 52zM227 548h-130v131h130v-131zM425 548h-130v131h130v-131zM255 402
c-43 0 -73 -37 -78 -112h155c-5 74 -31 112 -77 112z" />
    <glyph glyph-name="Edotaccent" unicode="&#x116;" 
d="M502 0h-439v690h430v-138h-262v-130h200l22 -137h-222v-146h271v-139zM349 742h-135v131h135v-131z" />
    <glyph glyph-name="edotaccent" unicode="&#x117;" horiz-adv-x="505" 
d="M475 45c-53 -34 -118 -55 -195 -55c-147 0 -252 79 -252 253c0 160 98 257 231 257c151 0 217 -112 217 -254c0 -15 -1 -31 -2 -39h-296c8 -78 54 -107 121 -107c54 0 107 20 161 52zM329 548h-135v131h135v-131zM255 402c-43 0 -73 -37 -78 -112h155
c-5 74 -31 112 -77 112z" />
    <glyph glyph-name="Egrave" unicode="&#xc8;" 
d="M502 0h-439v690h430v-138h-262v-130h200l22 -137h-222v-146h271v-139zM344 741h-100l-146 121l185 30z" />
    <glyph glyph-name="egrave" unicode="&#xe8;" horiz-adv-x="505" 
d="M475 45c-53 -34 -118 -55 -195 -55c-147 0 -252 79 -252 253c0 160 98 257 231 257c151 0 217 -112 217 -254c0 -15 -1 -31 -2 -39h-296c8 -78 54 -107 121 -107c54 0 107 20 161 52zM324 547h-100l-146 121l185 30zM255 402c-43 0 -73 -37 -78 -112h155
c-5 74 -31 112 -77 112z" />
    <glyph glyph-name="Emacron" unicode="&#x112;" 
d="M502 0h-439v690h430v-138h-262v-130h200l22 -137h-222v-146h271v-139zM433 751h-304v105h304v-105z" />
    <glyph glyph-name="emacron" unicode="&#x113;" horiz-adv-x="505" 
d="M475 45c-53 -34 -118 -55 -195 -55c-147 0 -252 79 -252 253c0 160 98 257 231 257c151 0 217 -112 217 -254c0 -15 -1 -31 -2 -39h-296c8 -78 54 -107 121 -107c54 0 107 20 161 52zM413 557h-304v105h304v-105zM255 402c-43 0 -73 -37 -78 -112h155
c-5 74 -31 112 -77 112z" />
    <glyph glyph-name="Eogonek" unicode="&#x118;" 
d="M502 0h-35l-15 -24c-17 -27 -24 -42 -24 -59c0 -20 12 -30 35 -30c14 0 27 3 42 7v-74c-30 -13 -66 -23 -103 -23c-56 0 -91 28 -91 81c0 32 17 69 57 122h-305v690h430v-138h-262v-130h200l22 -137h-222v-146h271v-139z" />
    <glyph glyph-name="eogonek" unicode="&#x119;" horiz-adv-x="505" 
d="M259 500c151 0 217 -112 217 -254c0 -13 -1 -32 -2 -39h-296c9 -77 56 -107 121 -107c54 0 107 20 161 52l14 -96l-54 -68c-23 -30 -34 -52 -34 -71c0 -20 13 -30 36 -30c14 0 27 3 42 7v-74c-31 -13 -66 -23 -103 -23c-57 0 -91 28 -91 81c0 31 16 66 52 116
c-13 -3 -28 -4 -42 -4c-147 0 -252 79 -252 253c0 160 98 257 231 257zM255 402c-42 0 -72 -37 -77 -112h154c-5 74 -31 112 -77 112z" />
    <glyph glyph-name="Gbreve" unicode="&#x11e;" horiz-adv-x="682" 
d="M630 60c-72 -47 -157 -73 -252 -73c-219 0 -340 144 -340 357c0 214 131 359 344 359c85 0 156 -20 211 -51l-23 -149c-52 33 -113 59 -184 59c-119 0 -177 -88 -177 -217c0 -130 60 -221 179 -221c38 0 65 8 93 22v123h-120l-20 127h289v-336zM524 886
c-13 -84 -65 -136 -159 -136c-93 0 -145 51 -158 136l83 13c15 -40 36 -56 75 -56s60 16 75 56z" />
    <glyph glyph-name="gbreve" unicode="&#x11f;" horiz-adv-x="534" 
d="M514 -6c0 -107 -117 -176 -274 -176c-138 0 -236 42 -236 117c0 43 26 75 80 105c-18 15 -27 34 -27 54c0 31 25 61 73 88c-61 27 -94 78 -94 142c0 107 88 174 206 174c62 0 113 -18 151 -47l115 44l19 -112l-86 -2c6 -17 9 -34 9 -52c0 -106 -92 -168 -203 -168
c-16 0 -31 0 -45 2c-9 -8 -13 -15 -13 -22c0 -14 12 -18 78 -26l90 -6c98 -10 157 -41 157 -115zM411 682c-13 -84 -65 -136 -159 -136c-93 0 -145 51 -158 136l83 13c15 -40 36 -56 75 -56s60 16 75 56zM232 -1c-36 3 -53 5 -77 9c-20 -19 -28 -36 -28 -54
c0 -34 37 -58 125 -58c79 0 124 26 124 58c0 23 -18 33 -71 39zM315 329c0 46 -27 80 -72 80c-44 0 -69 -36 -69 -83c0 -45 25 -78 69 -78c46 0 72 34 72 81z" />
    <glyph glyph-name="gbreve.alt" horiz-adv-x="541" 
d="M489 30c0 -140 -80 -212 -237 -212c-78 0 -137 15 -190 36l22 114c45 -23 98 -38 149 -38c66 0 105 29 105 95v42c-32 -31 -73 -62 -131 -62c-101 0 -177 75 -177 234c0 176 98 257 248 257c79 0 154 -13 211 -35v-431zM338 180v185c-20 7 -33 9 -56 9
c-58 0 -100 -35 -100 -128c0 -78 30 -113 73 -113c31 0 57 20 83 47zM435 682c-13 -84 -65 -136 -159 -136c-93 0 -145 51 -158 136l83 13c15 -40 36 -56 75 -56s60 16 75 56z" />
    <glyph glyph-name="Gcommaaccent" unicode="&#x122;" horiz-adv-x="682" 
d="M283 -81l121 23c29 -26 45 -53 45 -88c0 -43 -29 -87 -89 -129l-93 19c37 43 51 71 51 101c0 24 -8 45 -35 74zM630 60c-72 -47 -157 -73 -252 -73c-219 0 -340 144 -340 357c0 214 131 359 344 359c85 0 156 -20 211 -51l-23 -149c-52 33 -113 59 -184 59
c-119 0 -177 -88 -177 -217c0 -130 60 -221 179 -221c38 0 65 8 93 22v123h-120l-20 127h289v-336z" />
    <glyph glyph-name="gcommaaccent" unicode="&#x123;" horiz-adv-x="534" 
d="M514 -6c0 -107 -117 -176 -274 -176c-138 0 -236 42 -236 117c0 43 26 75 80 105c-18 15 -27 34 -27 54c0 31 25 61 73 88c-61 27 -94 78 -94 142c0 107 88 174 206 174c62 0 113 -18 151 -47l115 44l19 -112l-86 -2c6 -17 9 -34 9 -52c0 -106 -92 -168 -203 -168
c-16 0 -31 0 -45 2c-9 -8 -13 -15 -13 -22c0 -14 12 -18 78 -26l90 -6c98 -10 157 -41 157 -115zM332 562l-121 -23c-29 26 -45 53 -45 88c0 43 29 87 89 129l93 -19c-37 -43 -51 -71 -51 -101c0 -24 8 -45 35 -74zM232 -1c-36 3 -53 5 -77 9c-20 -19 -28 -36 -28 -54
c0 -34 37 -58 125 -58c79 0 124 26 124 58c0 23 -18 33 -71 39zM315 329c0 46 -27 80 -72 80c-44 0 -69 -36 -69 -83c0 -45 25 -78 69 -78c46 0 72 34 72 81z" />
    <glyph glyph-name="gcommaaccent.alt" horiz-adv-x="541" 
d="M359 562l-121 -23c-29 26 -45 53 -45 88c0 43 29 87 89 129l93 -19c-37 -43 -51 -71 -51 -101c0 -24 8 -45 35 -74zM489 30c0 -140 -80 -212 -237 -212c-78 0 -137 15 -190 36l22 114c45 -23 98 -38 149 -38c66 0 105 29 105 95v42c-32 -31 -73 -62 -131 -62
c-101 0 -177 75 -177 234c0 176 98 257 248 257c79 0 154 -13 211 -35v-431zM338 180v185c-20 7 -33 9 -56 9c-58 0 -100 -35 -100 -128c0 -78 30 -113 73 -113c31 0 57 20 83 47z" />
    <glyph glyph-name="Gdotaccent" unicode="&#x120;" horiz-adv-x="682" 
d="M630 60c-72 -47 -157 -73 -252 -73c-219 0 -340 144 -340 357c0 214 131 359 344 359c85 0 156 -20 211 -51l-23 -149c-52 33 -113 59 -184 59c-119 0 -177 -88 -177 -217c0 -130 60 -221 179 -221c38 0 65 8 93 22v123h-120l-20 127h289v-336zM433 752h-135v131h135
v-131z" />
    <glyph glyph-name="gdotaccent" unicode="&#x121;" horiz-adv-x="534" 
d="M514 -6c0 -107 -117 -176 -274 -176c-138 0 -236 42 -236 117c0 43 26 75 80 105c-18 15 -27 34 -27 54c0 31 25 61 73 88c-61 27 -94 78 -94 142c0 107 88 174 206 174c62 0 113 -18 151 -47l115 44l19 -112l-86 -2c6 -17 9 -34 9 -52c0 -106 -92 -168 -203 -168
c-16 0 -31 0 -45 2c-9 -8 -13 -15 -13 -22c0 -14 12 -18 78 -26l90 -6c98 -10 157 -41 157 -115zM232 -1c-36 3 -53 5 -77 9c-20 -19 -28 -36 -28 -54c0 -34 37 -58 125 -58c79 0 124 26 124 58c0 23 -18 33 -71 39zM315 329c0 46 -27 80 -72 80c-44 0 -69 -36 -69 -83
c0 -45 25 -78 69 -78c46 0 72 34 72 81zM320 548h-135v131h135v-131z" />
    <glyph glyph-name="gdotaccent.alt" horiz-adv-x="541" 
d="M489 30c0 -140 -80 -212 -237 -212c-78 0 -137 15 -190 36l22 114c45 -23 98 -38 149 -38c66 0 105 29 105 95v42c-32 -31 -73 -62 -131 -62c-101 0 -177 75 -177 234c0 176 98 257 248 257c79 0 154 -13 211 -35v-431zM338 180v185c-20 7 -33 9 -56 9
c-58 0 -100 -35 -100 -128c0 -78 30 -113 73 -113c31 0 57 20 83 47zM344 548h-135v131h135v-131z" />
    <glyph glyph-name="Hbar" unicode="&#x126;" horiz-adv-x="766" 
d="M674 0h-172v274h-238v-274h-172v509h-71l-17 103h88v78h171v-78h241v78h170v-78h80v-103h-80v-509zM263 419h241v94h-241v-94z" />
    <glyph glyph-name="hbar" unicode="&#x127;" horiz-adv-x="537" 
d="M327 549h-124v-120c41 40 86 71 146 71c91 0 139 -56 139 -152v-348h-152v307c0 35 -14 59 -50 59c-29 0 -56 -17 -83 -44v-322h-151v549h-55l-16 93h71v56l151 24v-80h124v-93z" />
    <glyph glyph-name="Iacute" unicode="&#xcd;" horiz-adv-x="305" 
d="M238 0h-171v690h171v-690zM334 862l-147 -121h-96l60 151z" />
    <glyph glyph-name="iacute" unicode="&#xed;" horiz-adv-x="262" 
d="M313 668l-147 -121h-96l60 151zM207 0h-152v490h152v-490z" />
    <glyph glyph-name="Ibreve" unicode="&#x12c;" horiz-adv-x="305" 
d="M238 0h-171v690h171v-690zM312 876c-13 -84 -65 -136 -159 -136c-93 0 -145 51 -158 136l83 13c15 -40 36 -56 75 -56s60 16 75 56z" />
    <glyph glyph-name="ibreve" unicode="&#x12d;" horiz-adv-x="262" 
d="M207 0h-152v490h152v-490zM290 682c-13 -84 -65 -136 -159 -136c-93 0 -145 51 -158 136l83 13c15 -40 36 -56 75 -56s60 16 75 56z" />
    <glyph glyph-name="Icircumflex" unicode="&#xce;" horiz-adv-x="305" 
d="M238 0h-171v690h171v-690zM322 741h-96l-74 58l-74 -58h-96l100 147h140z" />
    <glyph glyph-name="icircumflex" unicode="&#xee;" horiz-adv-x="262" 
d="M300 547h-96l-74 58l-74 -58h-96l100 147h140zM207 0h-152v490h152v-490z" />
    <glyph glyph-name="Idieresis" unicode="&#xcf;" horiz-adv-x="305" 
d="M238 0h-171v690h171v-690zM317 742h-130v131h130v-131zM119 742h-130v131h130v-131z" />
    <glyph glyph-name="idieresis" unicode="&#xef;" horiz-adv-x="262" 
d="M295 548h-130v131h130v-131zM97 548h-130v131h130v-131zM207 0h-152v490h152v-490z" />
    <glyph glyph-name="Idotaccent" unicode="&#x130;" horiz-adv-x="305" 
d="M238 0h-171v690h171v-690zM221 742h-135v131h135v-131z" />
    <glyph glyph-name="dotlessi" unicode="&#x131;" horiz-adv-x="262" 
d="M207 0h-152v490h152v-490z" />
    <glyph glyph-name="Igrave" unicode="&#xcc;" horiz-adv-x="305" 
d="M238 0h-171v690h171v-690zM215 741h-100l-146 121l185 30z" />
    <glyph glyph-name="igrave" unicode="&#xec;" horiz-adv-x="262" 
d="M207 0h-152v490h152v-490zM194 547h-100l-146 121l185 30z" />
    <glyph glyph-name="Imacron" unicode="&#x12a;" horiz-adv-x="305" 
d="M238 0h-171v690h171v-690zM305 751h-304v105h304v-105z" />
    <glyph glyph-name="imacron" unicode="&#x12b;" horiz-adv-x="262" 
d="M207 0h-152v490h152v-490zM283 557h-304v105h304v-105z" />
    <glyph glyph-name="Iogonek" unicode="&#x12e;" horiz-adv-x="305" 
d="M238 0h-31l-15 -24c-17 -27 -24 -42 -24 -59c0 -20 12 -30 35 -30c14 0 27 3 42 7v-74c-30 -13 -66 -23 -103 -23c-56 0 -91 28 -91 81c0 32 17 69 57 122h-41v690h171v-690z" />
    <glyph glyph-name="iogonek" unicode="&#x12f;" horiz-adv-x="262" 
d="M207 0h-23l-15 -24c-17 -27 -24 -42 -24 -59c0 -20 12 -30 35 -30c14 0 27 3 42 7v-74c-30 -13 -66 -23 -103 -23c-56 0 -91 28 -91 81c0 32 17 69 57 122h-30v490h152v-490zM217 635c0 -49 -37 -81 -86 -81c-48 0 -86 32 -86 81c0 50 38 83 86 83c49 0 86 -33 86 -83z
" />
    <glyph glyph-name="Kcommaaccent" unicode="&#x136;" horiz-adv-x="650" 
d="M256 -65l121 23c29 -26 45 -53 45 -88c0 -43 -29 -87 -89 -129l-93 19c37 43 51 71 51 101c0 24 -8 45 -35 74zM651 21l-187 -28l-230 328v-321h-171v690h171v-295l213 295h198l-248 -322z" />
    <glyph glyph-name="kcommaaccent" unicode="&#x137;" horiz-adv-x="505" 
d="M183 -73l121 23c29 -26 45 -53 45 -88c0 -43 -29 -87 -89 -129l-93 19c37 43 51 71 51 101c0 24 -8 45 -35 74zM502 15l-158 -22l-141 236v-229h-151v698l151 24v-432l129 200h166l-156 -225z" />
    <glyph glyph-name="Lacute" unicode="&#x139;" horiz-adv-x="488" 
d="M354 868l-147 -121h-96l60 151zM469 0h-406v690h171v-542h212z" />
    <glyph glyph-name="lacute" unicode="&#x13a;" horiz-adv-x="262" 
d="M321 881l-147 -121h-96l60 151zM207 0h-152v698l152 24v-722z" />
    <glyph glyph-name="Lcaron" unicode="&#x13d;" horiz-adv-x="488" 
d="M415 702c8 -24 12 -48 12 -72c0 -48 -25 -97 -68 -138l-71 15c19 38 26 66 26 101c0 22 -7 49 -19 78zM469 0h-406v690h171v-542h212z" />
    <glyph glyph-name="lcaron" unicode="&#x13e;" horiz-adv-x="262" 
d="M372 723c8 -24 12 -48 12 -72c0 -48 -25 -97 -68 -138l-71 15c19 38 26 66 26 101c0 22 -7 49 -19 78zM207 0h-152v698l152 24v-722z" />
    <glyph glyph-name="Lcommaaccent" unicode="&#x13b;" horiz-adv-x="488" 
d="M181 -80l121 23c29 -26 45 -53 45 -88c0 -43 -29 -87 -89 -129l-93 19c37 43 51 71 51 101c0 24 -8 45 -35 74zM469 0h-406v690h171v-542h212z" />
    <glyph glyph-name="lcommaaccent" unicode="&#x13c;" horiz-adv-x="262" 
d="M49 -73l121 23c29 -26 45 -53 45 -88c0 -43 -29 -87 -89 -129l-93 19c37 43 51 71 51 101c0 24 -8 45 -35 74zM207 0h-152v698l152 24v-722z" />
    <glyph glyph-name="Ldot" unicode="&#x13f;" horiz-adv-x="488" 
d="M456 301h-127v131h127v-131zM469 0h-406v690h171v-542h212z" />
    <glyph glyph-name="ldot" unicode="&#x140;" horiz-adv-x="338" 
d="M207 0h-152v698l152 24v-722zM355 284h-108v151h108v-151z" />
    <glyph glyph-name="Lslash" unicode="&#x141;" horiz-adv-x="517" 
d="M390 386l-127 -68v-170h212l24 -148h-407v225l-64 -35l-22 132l86 46v322h171v-229l127 70v-145z" />
    <glyph glyph-name="lslash" unicode="&#x142;" horiz-adv-x="318" 
d="M234 0h-149v237l-59 -32l-23 133l82 43v317l149 24v-263l72 39v-144l-72 -38v-316z" />
    <glyph glyph-name="Nacute" unicode="&#x143;" horiz-adv-x="705" 
d="M534 859l-147 -121h-96l60 151zM642 0h-148l-272 413v-413h-159v690h166l254 -386v386h159v-690z" />
    <glyph glyph-name="nacute" unicode="&#x144;" horiz-adv-x="537" 
d="M454 668l-147 -121h-96l60 151zM488 0h-152v307c0 35 -14 59 -50 59c-29 0 -56 -17 -83 -44v-322h-151v490h133l11 -67c44 44 91 77 153 77c91 0 139 -56 139 -152v-348z" />
    <glyph glyph-name="Ncaron" unicode="&#x147;" horiz-adv-x="705" 
d="M182 885h96l74 -58l74 58h96l-100 -147h-140zM642 0h-148l-272 413v-413h-159v690h166l254 -386v386h159v-690z" />
    <glyph glyph-name="ncaron" unicode="&#x148;" horiz-adv-x="537" 
d="M102 694h96l74 -58l74 58h96l-100 -147h-140zM488 0h-152v307c0 35 -14 59 -50 59c-29 0 -56 -17 -83 -44v-322h-151v490h133l11 -67c44 44 91 77 153 77c91 0 139 -56 139 -152v-348z" />
    <glyph glyph-name="Ncommaaccent" unicode="&#x145;" horiz-adv-x="705" 
d="M270 -65l121 23c29 -26 45 -53 45 -88c0 -43 -29 -87 -89 -129l-93 19c37 43 51 71 51 101c0 24 -8 45 -35 74zM642 0h-148l-272 413v-413h-159v690h166l254 -386v386h159v-690z" />
    <glyph glyph-name="ncommaaccent" unicode="&#x146;" horiz-adv-x="537" 
d="M190 -73l121 23c29 -26 45 -53 45 -88c0 -43 -29 -87 -89 -129l-93 19c37 43 51 71 51 101c0 24 -8 45 -35 74zM488 0h-152v307c0 35 -14 59 -50 59c-29 0 -56 -17 -83 -44v-322h-151v490h133l11 -67c44 44 91 77 153 77c91 0 139 -56 139 -152v-348z" />
    <glyph glyph-name="Ntilde" unicode="&#xd1;" horiz-adv-x="705" 
d="M642 0h-148l-272 413v-413h-159v690h166l254 -386v386h159v-690zM523 877c-13 -103 -45 -139 -95 -139c-26 0 -44 8 -71 20c-38 16 -50 21 -65 21s-24 -9 -32 -44l-72 15c14 104 46 140 96 140c26 0 43 -7 71 -20c38 -17 50 -21 65 -21s24 10 32 45z" />
    <glyph glyph-name="ntilde" unicode="&#xf1;" horiz-adv-x="537" 
d="M488 0h-152v307c0 35 -14 59 -50 59c-29 0 -56 -17 -83 -44v-322h-151v490h133l11 -67c44 44 91 77 153 77c91 0 139 -56 139 -152v-348zM443 686c-13 -103 -45 -139 -95 -139c-26 0 -44 8 -71 20c-38 16 -50 21 -65 21s-24 -9 -32 -44l-72 15c14 104 46 140 96 140
c26 0 43 -7 71 -20c38 -17 50 -21 65 -21s24 10 32 45z" />
    <glyph glyph-name="Oacute" unicode="&#xd3;" horiz-adv-x="735" 
d="M549 872l-147 -121h-96l60 151zM697 346c0 -213 -130 -359 -331 -359c-198 0 -328 144 -328 357c0 214 130 359 330 359s329 -144 329 -357zM525 345c0 137 -58 224 -158 224c-99 0 -158 -87 -158 -224s59 -224 158 -224c100 0 158 87 158 224z" />
    <glyph glyph-name="oacute" unicode="&#xf3;" horiz-adv-x="527" 
d="M444 668l-147 -121h-96l60 151zM499 245c0 -157 -101 -255 -237 -255c-135 0 -234 97 -234 254s100 256 235 256c136 0 236 -98 236 -255zM353 244c0 79 -32 133 -90 133s-89 -52 -89 -132c0 -79 32 -133 89 -133c58 0 90 53 90 132z" />
    <glyph glyph-name="Obreve" unicode="&#x14e;" horiz-adv-x="735" 
d="M697 346c0 -213 -130 -359 -331 -359c-198 0 -328 144 -328 357c0 214 130 359 330 359s329 -144 329 -357zM525 345c0 137 -58 224 -158 224c-99 0 -158 -87 -158 -224s59 -224 158 -224c100 0 158 87 158 224zM526 886c-13 -84 -65 -136 -159 -136
c-93 0 -145 51 -158 136l83 13c15 -40 36 -56 75 -56s60 16 75 56z" />
    <glyph glyph-name="obreve" unicode="&#x14f;" horiz-adv-x="527" 
d="M499 245c0 -157 -101 -255 -237 -255c-135 0 -234 97 -234 254s100 256 235 256c136 0 236 -98 236 -255zM353 244c0 79 -32 133 -90 133s-89 -52 -89 -132c0 -79 32 -133 89 -133c58 0 90 53 90 132zM422 682c-13 -84 -65 -136 -159 -136c-93 0 -145 51 -158 136l83 13
c15 -40 36 -56 75 -56s60 16 75 56z" />
    <glyph glyph-name="Ocircumflex" unicode="&#xd4;" horiz-adv-x="735" 
d="M536 751h-96l-74 58l-74 -58h-96l100 147h140zM697 346c0 -213 -130 -359 -331 -359c-198 0 -328 144 -328 357c0 214 130 359 330 359s329 -144 329 -357zM525 345c0 137 -58 224 -158 224c-99 0 -158 -87 -158 -224s59 -224 158 -224c100 0 158 87 158 224z" />
    <glyph glyph-name="ocircumflex" unicode="&#xf4;" horiz-adv-x="527" 
d="M432 547h-96l-74 58l-74 -58h-96l100 147h140zM499 245c0 -157 -101 -255 -237 -255c-135 0 -234 97 -234 254s100 256 235 256c136 0 236 -98 236 -255zM353 244c0 79 -32 133 -90 133s-89 -52 -89 -132c0 -79 32 -133 89 -133c58 0 90 53 90 132z" />
    <glyph glyph-name="Odieresis" unicode="&#xd6;" horiz-adv-x="735" 
d="M531 752h-130v131h130v-131zM333 752h-130v131h130v-131zM697 346c0 -213 -130 -359 -331 -359c-198 0 -328 144 -328 357c0 214 130 359 330 359s329 -144 329 -357zM525 345c0 137 -58 224 -158 224c-99 0 -158 -87 -158 -224s59 -224 158 -224c100 0 158 87 158 224z
" />
    <glyph glyph-name="odieresis" unicode="&#xf6;" horiz-adv-x="527" 
d="M427 548h-130v131h130v-131zM229 548h-130v131h130v-131zM499 245c0 -157 -101 -255 -237 -255c-135 0 -234 97 -234 254s100 256 235 256c136 0 236 -98 236 -255zM353 244c0 79 -32 133 -90 133s-89 -52 -89 -132c0 -79 32 -133 89 -133c58 0 90 53 90 132z" />
    <glyph glyph-name="Ograve" unicode="&#xd2;" horiz-adv-x="735" 
d="M697 346c0 -213 -130 -359 -331 -359c-198 0 -328 144 -328 357c0 214 130 359 330 359s329 -144 329 -357zM525 345c0 137 -58 224 -158 224c-99 0 -158 -87 -158 -224s59 -224 158 -224c100 0 158 87 158 224zM430 751h-100l-146 121l185 30z" />
    <glyph glyph-name="ograve" unicode="&#xf2;" horiz-adv-x="527" 
d="M499 245c0 -157 -101 -255 -237 -255c-135 0 -234 97 -234 254s100 256 235 256c136 0 236 -98 236 -255zM353 244c0 79 -32 133 -90 133s-89 -52 -89 -132c0 -79 32 -133 89 -133c58 0 90 53 90 132zM326 547h-100l-146 121l185 30z" />
    <glyph glyph-name="Ohungarumlaut" unicode="&#x150;" horiz-adv-x="735" 
d="M697 346c0 -213 -130 -359 -331 -359c-198 0 -328 144 -328 357c0 214 130 359 330 359s329 -144 329 -357zM525 345c0 137 -58 224 -158 224c-99 0 -158 -87 -158 -224s59 -224 158 -224c100 0 158 87 158 224zM618 872l-134 -120h-94l49 114l-127 -114h-94l64 150
l160 -30l13 30z" />
    <glyph glyph-name="ohungarumlaut" unicode="&#x151;" horiz-adv-x="527" 
d="M499 245c0 -157 -101 -255 -237 -255c-135 0 -234 97 -234 254s100 256 235 256c136 0 236 -98 236 -255zM353 244c0 79 -32 133 -90 133s-89 -52 -89 -132c0 -79 32 -133 89 -133c58 0 90 53 90 132zM513 668l-134 -120h-94l49 114l-127 -114h-94l64 150l160 -30l13 30z
" />
    <glyph glyph-name="Omacron" unicode="&#x14c;" horiz-adv-x="735" 
d="M519 761h-304v105h304v-105zM697 346c0 -213 -130 -359 -331 -359c-198 0 -328 144 -328 357c0 214 130 359 330 359s329 -144 329 -357zM525 345c0 137 -58 224 -158 224c-99 0 -158 -87 -158 -224s59 -224 158 -224c100 0 158 87 158 224z" />
    <glyph glyph-name="omacron" unicode="&#x14d;" horiz-adv-x="527" 
d="M415 557h-304v105h304v-105zM499 245c0 -157 -101 -255 -237 -255c-135 0 -234 97 -234 254s100 256 235 256c136 0 236 -98 236 -255zM353 244c0 79 -32 133 -90 133s-89 -52 -89 -132c0 -79 32 -133 89 -133c58 0 90 53 90 132z" />
    <glyph glyph-name="Oslash" unicode="&#xd8;" horiz-adv-x="735" 
d="M697 344c0 -213 -131 -357 -328 -357c-75 0 -141 21 -194 60l-46 -56l-104 23l82 100c-44 61 -69 141 -69 232c0 213 132 357 328 357c75 0 141 -22 194 -60l46 56l104 -23l-82 -100c44 -61 69 -141 69 -232zM367 575c-100 0 -160 -92 -160 -230c0 -42 5 -79 16 -111
l246 297c-27 28 -61 44 -102 44zM528 345c0 41 -6 79 -16 111l-246 -298c26 -28 60 -43 101 -43c101 0 161 92 161 230z" />
    <glyph glyph-name="oslash" unicode="&#xf8;" horiz-adv-x="527" 
d="M499 245c0 -157 -102 -255 -233 -255c-52 0 -99 14 -137 40l-32 -40l-81 18l61 73c-31 42 -48 97 -48 163c0 157 101 256 233 256c52 0 99 -15 137 -42l33 42l81 -18l-62 -75c30 -42 48 -97 48 -162zM358 244c0 23 -3 44 -8 63l-143 -178c14 -15 33 -23 56 -23
c61 0 95 56 95 138zM263 384c-60 0 -92 -57 -92 -139c0 -23 2 -44 7 -62l142 177c-15 15 -34 24 -57 24z" />
    <glyph glyph-name="Oslashacute" unicode="&#x1fe;" horiz-adv-x="735" 
d="M697 344c0 -213 -131 -357 -328 -357c-75 0 -141 21 -194 60l-46 -56l-104 23l82 100c-44 61 -69 141 -69 232c0 213 132 357 328 357c75 0 141 -22 194 -60l46 56l104 -23l-82 -100c44 -61 69 -141 69 -232zM367 575c-100 0 -160 -92 -160 -230c0 -42 5 -79 16 -111
l246 297c-27 28 -61 44 -102 44zM528 345c0 41 -6 79 -16 111l-246 -298c26 -28 60 -43 101 -43c101 0 161 92 161 230zM549 872l-147 -121h-96l60 151z" />
    <glyph glyph-name="oslashacute" unicode="&#x1ff;" horiz-adv-x="527" 
d="M499 245c0 -157 -102 -255 -233 -255c-52 0 -99 14 -137 40l-32 -40l-81 18l61 73c-31 42 -48 97 -48 163c0 157 101 256 233 256c52 0 99 -15 137 -42l33 42l81 -18l-62 -75c30 -42 48 -97 48 -162zM444 668l-147 -121h-96l60 151zM358 244c0 23 -3 44 -8 63l-143 -178
c14 -15 33 -23 56 -23c61 0 95 56 95 138zM263 384c-60 0 -92 -57 -92 -139c0 -23 2 -44 7 -62l142 177c-15 15 -34 24 -57 24z" />
    <glyph glyph-name="Otilde" unicode="&#xd5;" horiz-adv-x="735" 
d="M697 346c0 -213 -130 -359 -331 -359c-198 0 -328 144 -328 357c0 214 130 359 330 359s329 -144 329 -357zM525 345c0 137 -58 224 -158 224c-99 0 -158 -87 -158 -224s59 -224 158 -224c100 0 158 87 158 224zM538 890c-13 -103 -45 -139 -95 -139c-26 0 -44 8 -71 20
c-38 16 -50 21 -65 21s-24 -9 -32 -44l-72 15c14 104 46 140 96 140c26 0 43 -7 71 -20c38 -17 50 -21 65 -21s24 10 32 45z" />
    <glyph glyph-name="otilde" unicode="&#xf5;" horiz-adv-x="527" 
d="M499 245c0 -157 -101 -255 -237 -255c-135 0 -234 97 -234 254s100 256 235 256c136 0 236 -98 236 -255zM353 244c0 79 -32 133 -90 133s-89 -52 -89 -132c0 -79 32 -133 89 -133c58 0 90 53 90 132zM433 686c-13 -103 -45 -139 -95 -139c-26 0 -44 8 -71 20
c-38 16 -50 21 -65 21s-24 -9 -32 -44l-72 15c14 104 46 140 96 140c26 0 43 -7 71 -20c38 -17 50 -21 65 -21s24 10 32 45z" />
    <glyph glyph-name="Racute" unicode="&#x154;" horiz-adv-x="616" 
d="M482 862l-147 -121h-96l60 151zM608 22l-181 -29l-151 244h-43v-237h-170v690h241c167 0 265 -76 265 -218c0 -96 -48 -161 -130 -196zM401 462c0 64 -40 99 -114 99h-55v-201h53c74 0 116 36 116 102z" />
    <glyph glyph-name="racute" unicode="&#x155;" horiz-adv-x="377" 
d="M374 668l-147 -121h-96l60 151zM368 346c-73 -5 -128 -34 -165 -74v-272h-151v490h132l16 -97c30 56 71 102 143 107z" />
    <glyph glyph-name="Rcaron" unicode="&#x158;" horiz-adv-x="616" 
d="M131 888h96l74 -58l74 58h96l-100 -147h-140zM608 22l-181 -29l-151 244h-43v-237h-170v690h241c167 0 265 -76 265 -218c0 -96 -48 -161 -130 -196zM401 462c0 64 -40 99 -114 99h-55v-201h53c74 0 116 36 116 102z" />
    <glyph glyph-name="rcaron" unicode="&#x159;" horiz-adv-x="377" 
d="M24 694h96l74 -58l74 58h96l-100 -147h-140zM368 346c-73 -5 -128 -34 -165 -74v-272h-151v490h132l16 -97c30 56 71 102 143 107z" />
    <glyph glyph-name="Rcommaaccent" unicode="&#x156;" horiz-adv-x="616" 
d="M228 -65l121 23c29 -26 45 -53 45 -88c0 -43 -29 -87 -89 -129l-93 19c37 43 51 71 51 101c0 24 -8 45 -35 74zM608 22l-181 -29l-151 244h-43v-237h-170v690h241c167 0 265 -76 265 -218c0 -96 -48 -161 -130 -196zM401 462c0 64 -40 99 -114 99h-55v-201h53
c74 0 116 36 116 102z" />
    <glyph glyph-name="rcommaaccent" unicode="&#x157;" horiz-adv-x="377" 
d="M56 -73l121 23c29 -26 45 -53 45 -88c0 -43 -29 -87 -89 -129l-93 19c37 43 51 71 51 101c0 24 -8 45 -35 74zM368 346c-73 -5 -128 -34 -165 -74v-272h-151v490h132l16 -97c30 56 71 102 143 107z" />
    <glyph glyph-name="Sacute" unicode="&#x15a;" horiz-adv-x="553" 
d="M468 872l-147 -121h-96l60 151zM523 208c0 -150 -110 -216 -247 -216c-93 0 -171 20 -241 52l25 146c71 -38 150 -64 219 -64c49 0 83 21 83 62c0 39 -20 57 -117 94c-138 53 -198 98 -198 212c0 133 104 204 236 204c90 0 148 -17 208 -46l-26 -144
c-62 36 -127 56 -180 56c-52 0 -77 -22 -77 -54c0 -35 19 -52 105 -85c151 -55 210 -107 210 -217z" />
    <glyph glyph-name="sacute" unicode="&#x15b;" horiz-adv-x="464" 
d="M424 668l-147 -121h-96l60 151zM435 151c0 -104 -71 -160 -201 -160c-78 0 -151 22 -202 48l18 116c58 -36 129 -58 185 -58c42 0 62 15 62 38c0 24 -14 36 -83 53c-123 32 -175 66 -175 158c0 91 68 153 189 153c66 0 129 -13 180 -36l-19 -116c-53 29 -113 46 -161 46
c-35 0 -52 -13 -52 -32c0 -21 14 -32 83 -51c130 -34 176 -68 176 -159z" />
    <glyph glyph-name="Scaron" unicode="&#x160;" horiz-adv-x="553" 
d="M116 898h96l74 -58l74 58h96l-100 -147h-140zM523 208c0 -150 -110 -216 -247 -216c-93 0 -171 20 -241 52l25 146c71 -38 150 -64 219 -64c49 0 83 21 83 62c0 39 -20 57 -117 94c-138 53 -198 98 -198 212c0 133 104 204 236 204c90 0 148 -17 208 -46l-26 -144
c-62 36 -127 56 -180 56c-52 0 -77 -22 -77 -54c0 -35 19 -52 105 -85c151 -55 210 -107 210 -217z" />
    <glyph glyph-name="scaron" unicode="&#x161;" horiz-adv-x="464" 
d="M73 694h96l74 -58l74 58h96l-100 -147h-140zM435 151c0 -104 -71 -160 -201 -160c-78 0 -151 22 -202 48l18 116c58 -36 129 -58 185 -58c42 0 62 15 62 38c0 24 -14 36 -83 53c-123 32 -175 66 -175 158c0 91 68 153 189 153c66 0 129 -13 180 -36l-19 -116
c-53 29 -113 46 -161 46c-35 0 -52 -13 -52 -32c0 -21 14 -32 83 -51c130 -34 176 -68 176 -159z" />
    <glyph glyph-name="Scedilla" unicode="&#x15e;" horiz-adv-x="553" 
d="M523 208c0 -150 -110 -216 -247 -216c-93 0 -171 20 -241 52l25 146c71 -38 150 -64 219 -64c49 0 83 21 83 62c0 39 -20 57 -117 94c-138 53 -198 98 -198 212c0 133 104 204 236 204c90 0 148 -17 208 -46l-26 -144c-62 36 -127 56 -180 56c-52 0 -77 -22 -77 -54
c0 -35 19 -52 105 -85c151 -55 210 -107 210 -217zM388 -89l-139 -106h-97l54 137z" />
    <glyph glyph-name="scedilla" unicode="&#x15f;" horiz-adv-x="464" 
d="M435 151c0 -104 -71 -160 -201 -160c-78 0 -151 22 -202 48l18 116c58 -36 129 -58 185 -58c42 0 62 15 62 38c0 24 -14 36 -83 53c-123 32 -175 66 -175 158c0 91 68 153 189 153c66 0 129 -13 180 -36l-19 -116c-53 29 -113 46 -161 46c-35 0 -52 -13 -52 -32
c0 -21 14 -32 83 -51c130 -34 176 -68 176 -159zM344 -81l-139 -106h-97l54 137z" />
    <glyph glyph-name="Scommaaccent" unicode="&#x218;" horiz-adv-x="553" 
d="M204 -81l121 23c29 -26 45 -53 45 -88c0 -43 -29 -87 -89 -129l-93 19c37 43 51 71 51 101c0 24 -8 45 -35 74zM523 208c0 -150 -110 -216 -247 -216c-93 0 -171 20 -241 52l25 146c71 -38 150 -64 219 -64c49 0 83 21 83 62c0 39 -20 57 -117 94
c-138 53 -198 98 -198 212c0 133 104 204 236 204c90 0 148 -17 208 -46l-26 -144c-62 36 -127 56 -180 56c-52 0 -77 -22 -77 -54c0 -35 19 -52 105 -85c151 -55 210 -107 210 -217z" />
    <glyph glyph-name="scommaaccent" unicode="&#x219;" horiz-adv-x="464" 
d="M161 -73l121 23c29 -26 45 -53 45 -88c0 -43 -29 -87 -89 -129l-93 19c37 43 51 71 51 101c0 24 -8 45 -35 74zM435 151c0 -104 -71 -160 -201 -160c-78 0 -151 22 -202 48l18 116c58 -36 129 -58 185 -58c42 0 62 15 62 38c0 24 -14 36 -83 53c-123 32 -175 66 -175 158
c0 91 68 153 189 153c66 0 129 -13 180 -36l-19 -116c-53 29 -113 46 -161 46c-35 0 -52 -13 -52 -32c0 -21 14 -32 83 -51c130 -34 176 -68 176 -159z" />
    <glyph glyph-name="Tcaron" unicode="&#x164;" horiz-adv-x="609" 
d="M136 888h96l74 -58l74 58h96l-100 -147h-140zM595 545h-203v-545h-172v545h-195v145h546z" />
    <glyph glyph-name="tcaron" unicode="&#x165;" horiz-adv-x="363" 
d="M398 740c8 -24 12 -48 12 -72c0 -48 -25 -97 -68 -138l-71 15c19 38 26 66 26 101c0 22 -7 49 -19 78zM344 3c-24 -7 -47 -10 -87 -10c-105 0 -178 38 -178 163v211h-65v123h65v146l150 24v-170h93l19 -123h-112v-187c0 -39 20 -58 60 -58c13 0 26 2 37 5z" />
    <glyph glyph-name="Tcommaaccent" unicode="&#x162;" horiz-adv-x="609" 
d="M224 -80l121 23c29 -26 45 -53 45 -88c0 -43 -29 -87 -89 -129l-93 19c37 43 51 71 51 101c0 24 -8 45 -35 74zM595 545h-203v-545h-172v545h-195v145h546z" />
    <glyph glyph-name="Tcommaaccent" unicode="&#x21a;" horiz-adv-x="609" 
d="M224 -80l121 23c29 -26 45 -53 45 -88c0 -43 -29 -87 -89 -129l-93 19c37 43 51 71 51 101c0 24 -8 45 -35 74zM595 545h-203v-545h-172v545h-195v145h546z" />
    <glyph glyph-name="tcommaaccent" unicode="&#x163;" horiz-adv-x="363" 
d="M116 -73l121 23c29 -26 45 -53 45 -88c0 -43 -29 -87 -89 -129l-93 19c37 43 51 71 51 101c0 24 -8 45 -35 74zM344 3c-24 -7 -47 -10 -87 -10c-105 0 -178 38 -178 163v211h-65v123h65v146l150 24v-170h93l19 -123h-112v-187c0 -39 20 -58 60 -58c13 0 26 2 37 5z" />
    <glyph glyph-name="tcommaaccent" unicode="&#x21b;" horiz-adv-x="363" 
d="M116 -73l121 23c29 -26 45 -53 45 -88c0 -43 -29 -87 -89 -129l-93 19c37 43 51 71 51 101c0 24 -8 45 -35 74zM344 3c-24 -7 -47 -10 -87 -10c-105 0 -178 38 -178 163v211h-65v123h65v146l150 24v-170h93l19 -123h-112v-187c0 -39 20 -58 60 -58c13 0 26 2 37 5z" />
    <glyph glyph-name="Uacute" unicode="&#xda;" horiz-adv-x="688" 
d="M524 859l-147 -121h-96l60 151zM633 274c0 -192 -124 -285 -291 -285c-169 0 -287 91 -287 284v417h172v-416c0 -89 40 -141 117 -141c78 0 117 51 117 139v418h172v-416z" />
    <glyph glyph-name="uacute" unicode="&#xfa;" horiz-adv-x="537" 
d="M449 668l-147 -121h-96l60 151zM485 0h-133l-11 67c-45 -44 -92 -77 -153 -77c-91 0 -139 56 -139 151v349h151v-307c0 -35 15 -60 51 -60c29 0 56 17 83 44v323h151v-490z" />
    <glyph glyph-name="Uacute.alt" horiz-adv-x="698" 
d="M529 859l-147 -121h-96l60 151zM491 0l-10 66c-64 -45 -127 -73 -205 -73c-130 0 -216 63 -216 223v474h172v-450c0 -68 30 -101 94 -101c43 0 90 21 138 57v494h171v-690h-144z" />
    <glyph glyph-name="Ubreve" unicode="&#x16c;" horiz-adv-x="688" 
d="M633 274c0 -192 -124 -285 -291 -285c-169 0 -287 91 -287 284v417h172v-416c0 -89 40 -141 117 -141c78 0 117 51 117 139v418h172v-416zM502 867c-13 -84 -65 -136 -159 -136c-93 0 -145 51 -158 136l83 13c15 -40 36 -56 75 -56s60 16 75 56z" />
    <glyph glyph-name="ubreve" unicode="&#x16d;" horiz-adv-x="537" 
d="M485 0h-133l-11 67c-45 -44 -92 -77 -153 -77c-91 0 -139 56 -139 151v349h151v-307c0 -35 15 -60 51 -60c29 0 56 17 83 44v323h151v-490zM426 682c-13 -84 -65 -136 -159 -136c-93 0 -145 51 -158 136l83 13c15 -40 36 -56 75 -56s60 16 75 56z" />
    <glyph glyph-name="Ubreve.alt" horiz-adv-x="698" 
d="M491 0l-10 66c-64 -45 -127 -73 -205 -73c-130 0 -216 63 -216 223v474h172v-450c0 -68 30 -101 94 -101c43 0 90 21 138 57v494h171v-690h-144zM506 867c-13 -84 -65 -136 -159 -136c-93 0 -145 51 -158 136l83 13c15 -40 36 -56 75 -56s60 16 75 56z" />
    <glyph glyph-name="Ucircumflex" unicode="&#xdb;" horiz-adv-x="688" 
d="M512 738h-96l-74 58l-74 -58h-96l100 147h140zM633 274c0 -192 -124 -285 -291 -285c-169 0 -287 91 -287 284v417h172v-416c0 -89 40 -141 117 -141c78 0 117 51 117 139v418h172v-416z" />
    <glyph glyph-name="ucircumflex" unicode="&#xfb;" horiz-adv-x="537" 
d="M436 547h-96l-74 58l-74 -58h-96l100 147h140zM485 0h-133l-11 67c-45 -44 -92 -77 -153 -77c-91 0 -139 56 -139 151v349h151v-307c0 -35 15 -60 51 -60c29 0 56 17 83 44v323h151v-490z" />
    <glyph glyph-name="Ucircumflex.alt" horiz-adv-x="698" 
d="M517 738h-96l-74 58l-74 -58h-96l100 147h140zM491 0l-10 66c-64 -45 -127 -73 -205 -73c-130 0 -216 63 -216 223v474h172v-450c0 -68 30 -101 94 -101c43 0 90 21 138 57v494h171v-690h-144z" />
    <glyph glyph-name="Udieresis" unicode="&#xdc;" horiz-adv-x="688" 
d="M507 739h-130v131h130v-131zM309 739h-130v131h130v-131zM633 274c0 -192 -124 -285 -291 -285c-169 0 -287 91 -287 284v417h172v-416c0 -89 40 -141 117 -141c78 0 117 51 117 139v418h172v-416z" />
    <glyph glyph-name="udieresis" unicode="&#xfc;" horiz-adv-x="537" 
d="M431 548h-130v131h130v-131zM233 548h-130v131h130v-131zM485 0h-133l-11 67c-45 -44 -92 -77 -153 -77c-91 0 -139 56 -139 151v349h151v-307c0 -35 15 -60 51 -60c29 0 56 17 83 44v323h151v-490z" />
    <glyph glyph-name="Udieresis.alt" horiz-adv-x="698" 
d="M511 739h-130v131h130v-131zM313 739h-130v131h130v-131zM491 0l-10 66c-64 -45 -127 -73 -205 -73c-130 0 -216 63 -216 223v474h172v-450c0 -68 30 -101 94 -101c43 0 90 21 138 57v494h171v-690h-144z" />
    <glyph glyph-name="Ugrave" unicode="&#xd9;" horiz-adv-x="688" 
d="M633 274c0 -192 -124 -285 -291 -285c-169 0 -287 91 -287 284v417h172v-416c0 -89 40 -141 117 -141c78 0 117 51 117 139v418h172v-416zM406 738h-100l-146 121l185 30z" />
    <glyph glyph-name="ugrave" unicode="&#xf9;" horiz-adv-x="537" 
d="M485 0h-133l-11 67c-45 -44 -92 -77 -153 -77c-91 0 -139 56 -139 151v349h151v-307c0 -35 15 -60 51 -60c29 0 56 17 83 44v323h151v-490zM331 547h-100l-146 121l185 30z" />
    <glyph glyph-name="Ugrave.alt" horiz-adv-x="698" 
d="M410 738h-100l-146 121l185 30zM491 0l-10 66c-64 -45 -127 -73 -205 -73c-130 0 -216 63 -216 223v474h172v-450c0 -68 30 -101 94 -101c43 0 90 21 138 57v494h171v-690h-144z" />
    <glyph glyph-name="Uhungarumlaut" unicode="&#x170;" horiz-adv-x="688" 
d="M633 274c0 -192 -124 -285 -291 -285c-169 0 -287 91 -287 284v417h172v-416c0 -89 40 -141 117 -141c78 0 117 51 117 139v418h172v-416zM594 859l-134 -120h-94l49 114l-127 -114h-94l64 150l160 -30l13 30z" />
    <glyph glyph-name="uhungarumlaut" unicode="&#x171;" horiz-adv-x="537" 
d="M485 0h-133l-11 67c-45 -44 -92 -77 -153 -77c-91 0 -139 56 -139 151v349h151v-307c0 -35 15 -60 51 -60c29 0 56 17 83 44v323h151v-490zM518 668l-134 -120h-94l49 114l-127 -114h-94l64 150l160 -30l13 30z" />
    <glyph glyph-name="Uhungarumlaut.alt" horiz-adv-x="698" 
d="M491 0l-10 66c-64 -45 -127 -73 -205 -73c-130 0 -216 63 -216 223v474h172v-450c0 -68 30 -101 94 -101c43 0 90 21 138 57v494h171v-690h-144zM598 859l-134 -120h-94l49 114l-127 -114h-94l64 150l160 -30l13 30z" />
    <glyph glyph-name="Umacron" unicode="&#x16a;" horiz-adv-x="688" 
d="M633 274c0 -192 -124 -285 -291 -285c-169 0 -287 91 -287 284v417h172v-416c0 -89 40 -141 117 -141c78 0 117 51 117 139v418h172v-416zM495 748h-304v105h304v-105z" />
    <glyph glyph-name="umacron" unicode="&#x16b;" horiz-adv-x="537" 
d="M485 0h-133l-11 67c-45 -44 -92 -77 -153 -77c-91 0 -139 56 -139 151v349h151v-307c0 -35 15 -60 51 -60c29 0 56 17 83 44v323h151v-490zM419 557h-304v105h304v-105z" />
    <glyph glyph-name="Umacron.alt" horiz-adv-x="698" 
d="M499 748h-304v105h304v-105zM491 0l-10 66c-64 -45 -127 -73 -205 -73c-130 0 -216 63 -216 223v474h172v-450c0 -68 30 -101 94 -101c43 0 90 21 138 57v494h171v-690h-144z" />
    <glyph glyph-name="Uogonek" unicode="&#x172;" horiz-adv-x="688" 
d="M633 274c0 -171 -98 -263 -238 -281l-10 -17c-17 -27 -24 -42 -24 -59c0 -20 12 -30 35 -30c14 0 27 3 42 7v-74c-30 -13 -66 -23 -103 -23c-56 0 -91 28 -91 81c0 31 15 65 50 114c-143 15 -239 106 -239 281v417h172v-416c0 -89 40 -141 117 -141c78 0 117 51 117 139
v418h172v-416z" />
    <glyph glyph-name="uogonek" unicode="&#x173;" horiz-adv-x="537" 
d="M485 0h-27l-15 -24c-17 -27 -24 -42 -24 -59c0 -20 12 -30 35 -30c14 0 27 3 42 7v-74c-30 -13 -66 -23 -103 -23c-56 0 -91 28 -91 81c0 32 17 69 57 122h-7l-11 67c-45 -44 -92 -77 -153 -77c-91 0 -139 56 -139 151v349h151v-307c0 -35 15 -60 51 -60
c29 0 56 17 83 44v323h151v-490z" />
    <glyph glyph-name="Uogonek.alt" horiz-adv-x="698" 
d="M491 0l-10 66c-64 -45 -127 -73 -205 -73c-130 0 -216 63 -216 223v474h172v-450c0 -68 30 -101 94 -101c43 0 90 21 138 57v494h171v-690h-34l-15 -24c-17 -27 -24 -42 -24 -59c0 -20 12 -30 35 -30c14 0 27 3 42 7v-74c-30 -13 -66 -23 -103 -23c-56 0 -91 28 -91 81
c0 32 17 69 57 122h-11z" />
    <glyph glyph-name="Uring" unicode="&#x16e;" horiz-adv-x="688" 
d="M475 834c0 -60 -45 -108 -132 -108s-132 48 -132 108c0 59 45 108 132 108s132 -49 132 -108zM393 834c0 31 -20 58 -50 58s-50 -27 -50 -58c0 -32 20 -58 50 -58s50 26 50 58zM633 274c0 -192 -124 -285 -291 -285c-169 0 -287 91 -287 284v417h172v-416
c0 -89 40 -141 117 -141c78 0 117 51 117 139v418h172v-416z" />
    <glyph glyph-name="uring" unicode="&#x16f;" horiz-adv-x="537" 
d="M399 646c0 -60 -45 -108 -132 -108s-132 48 -132 108c0 59 45 108 132 108s132 -49 132 -108zM317 646c0 31 -20 58 -50 58s-50 -27 -50 -58c0 -32 20 -58 50 -58s50 26 50 58zM485 0h-133l-11 67c-45 -44 -92 -77 -153 -77c-91 0 -139 56 -139 151v349h151v-307
c0 -35 15 -60 51 -60c29 0 56 17 83 44v323h151v-490z" />
    <glyph glyph-name="Uring.alt" horiz-adv-x="698" 
d="M479 834c0 -60 -45 -108 -132 -108s-132 48 -132 108c0 59 45 108 132 108s132 -49 132 -108zM397 834c0 31 -20 58 -50 58s-50 -27 -50 -58c0 -32 20 -58 50 -58s50 26 50 58zM491 0l-10 66c-64 -45 -127 -73 -205 -73c-130 0 -216 63 -216 223v474h172v-450
c0 -68 30 -101 94 -101c43 0 90 21 138 57v494h171v-690h-144z" />
    <glyph glyph-name="Wacute" unicode="&#x1e82;" horiz-adv-x="990" 
d="M687 862l-147 -121h-96l60 151zM972 690l-188 -691h-173l-119 446l-119 -446h-172l-182 669l185 29l104 -439l112 432h172l112 -432l98 432h170z" />
    <glyph glyph-name="wacute" unicode="&#x1e83;" horiz-adv-x="725" 
d="M552 668l-147 -121h-96l60 151zM715 490l-137 -491h-145l-71 280l-70 -280h-146l-134 479l156 19l67 -295l69 288h136l70 -287l64 287h141z" />
    <glyph glyph-name="Wacute.alt" horiz-adv-x="1011" 
d="M998 690l-224 -693h-172l-99 297l-104 -297h-168l-217 672l181 28l144 -477l96 274l-56 177l182 28l134 -479l132 470h171zM687 862l-147 -121h-96l60 151z" />
    <glyph glyph-name="Wcircumflex" unicode="&#x174;" horiz-adv-x="990" 
d="M675 741h-96l-74 58l-74 -58h-96l100 147h140zM972 690l-188 -691h-173l-119 446l-119 -446h-172l-182 669l185 29l104 -439l112 432h172l112 -432l98 432h170z" />
    <glyph glyph-name="wcircumflex" unicode="&#x175;" horiz-adv-x="725" 
d="M539 547h-96l-74 58l-74 -58h-96l100 147h140zM715 490l-137 -491h-145l-71 280l-70 -280h-146l-134 479l156 19l67 -295l69 288h136l70 -287l64 287h141z" />
    <glyph glyph-name="Wcircumflex.alt" horiz-adv-x="1011" 
d="M998 690l-224 -693h-172l-99 297l-104 -297h-168l-217 672l181 28l144 -477l96 274l-56 177l182 28l134 -479l132 470h171zM674 741h-96l-74 58l-74 -58h-96l100 147h140z" />
    <glyph glyph-name="Wdieresis" unicode="&#x1e84;" horiz-adv-x="990" 
d="M669 742h-130v131h130v-131zM471 742h-130v131h130v-131zM972 690l-188 -691h-173l-119 446l-119 -446h-172l-182 669l185 29l104 -439l112 432h172l112 -432l98 432h170z" />
    <glyph glyph-name="wdieresis" unicode="&#x1e85;" horiz-adv-x="725" 
d="M534 548h-130v131h130v-131zM336 548h-130v131h130v-131zM715 490l-137 -491h-145l-71 280l-70 -280h-146l-134 479l156 19l67 -295l69 288h136l70 -287l64 287h141z" />
    <glyph glyph-name="Wdieresis.alt" horiz-adv-x="1011" 
d="M998 690l-224 -693h-172l-99 297l-104 -297h-168l-217 672l181 28l144 -477l96 274l-56 177l182 28l134 -479l132 470h171zM471 742h-130v131h130v-131zM669 742h-130v131h130v-131z" />
    <glyph glyph-name="Wgrave" unicode="&#x1e80;" horiz-adv-x="990" 
d="M972 690l-188 -691h-173l-119 446l-119 -446h-172l-182 669l185 29l104 -439l112 432h172l112 -432l98 432h170zM568 741h-100l-146 121l185 30z" />
    <glyph glyph-name="wgrave" unicode="&#x1e81;" horiz-adv-x="725" 
d="M715 490l-137 -491h-145l-71 280l-70 -280h-146l-134 479l156 19l67 -295l69 288h136l70 -287l64 287h141zM433 547h-100l-146 121l185 30z" />
    <glyph glyph-name="Wgrave.alt" horiz-adv-x="1011" 
d="M998 690l-224 -693h-172l-99 297l-104 -297h-168l-217 672l181 28l144 -477l96 274l-56 177l182 28l134 -479l132 470h171zM568 741h-100l-146 121l185 30z" />
    <glyph glyph-name="Yacute" unicode="&#xdd;" horiz-adv-x="670" 
d="M669 690l-249 -436v-254h-171v252l-239 420l182 25l150 -286l145 279h182zM524 859l-147 -121h-96l60 151z" />
    <glyph glyph-name="yacute" unicode="&#xfd;" horiz-adv-x="510" 
d="M502 490l-175 -502c-44 -127 -103 -170 -208 -170c-32 0 -45 3 -59 6l-20 122c17 -5 32 -8 60 -8c35 0 66 13 83 51l4 10l-178 479l162 19l94 -308l89 301h148zM448 668l-147 -121h-96l60 151z" />
    <glyph glyph-name="Ycircumflex" unicode="&#x176;" horiz-adv-x="670" 
d="M669 690l-249 -436v-254h-171v252l-239 420l182 25l150 -286l145 279h182zM511 738h-96l-74 58l-74 -58h-96l100 147h140z" />
    <glyph glyph-name="ycircumflex" unicode="&#x177;" horiz-adv-x="510" 
d="M502 490l-175 -502c-44 -127 -103 -170 -208 -170c-32 0 -45 3 -59 6l-20 122c17 -5 32 -8 60 -8c35 0 66 13 83 51l4 10l-178 479l162 19l94 -308l89 301h148zM435 547h-96l-74 58l-74 -58h-96l100 147h140z" />
    <glyph glyph-name="Ydieresis" unicode="&#x178;" horiz-adv-x="670" 
d="M669 690l-249 -436v-254h-171v252l-239 420l182 25l150 -286l145 279h182zM506 739h-130v131h130v-131zM308 739h-130v131h130v-131z" />
    <glyph glyph-name="ydieresis" unicode="&#xff;" horiz-adv-x="510" 
d="M502 490l-175 -502c-44 -127 -103 -170 -208 -170c-32 0 -45 3 -59 6l-20 122c17 -5 32 -8 60 -8c35 0 66 13 83 51l4 10l-178 479l162 19l94 -308l89 301h148zM430 548h-130v131h130v-131zM232 548h-130v131h130v-131z" />
    <glyph glyph-name="Ygrave" unicode="&#x1ef2;" horiz-adv-x="670" 
d="M669 690l-249 -436v-254h-171v252l-239 420l182 25l150 -286l145 279h182zM405 738h-100l-146 121l185 30z" />
    <glyph glyph-name="ygrave" unicode="&#x1ef3;" horiz-adv-x="510" 
d="M502 490l-175 -502c-44 -127 -103 -170 -208 -170c-32 0 -45 3 -59 6l-20 122c17 -5 32 -8 60 -8c35 0 66 13 83 51l4 10l-178 479l162 19l94 -308l89 301h148zM330 547h-100l-146 121l185 30z" />
    <glyph glyph-name="Zacute" unicode="&#x179;" horiz-adv-x="611" 
d="M493 862l-147 -121h-96l60 151zM578 0h-539v124l321 430h-287l-21 136h517v-124l-321 -430h309z" />
    <glyph glyph-name="zacute" unicode="&#x17a;" horiz-adv-x="467" 
d="M418 668l-147 -121h-96l60 151zM443 0h-416v114l217 258h-191l-18 118h396v-115l-216 -257h209z" />
    <glyph glyph-name="Zcaron" unicode="&#x17d;" horiz-adv-x="611" 
d="M142 888h96l74 -58l74 58h96l-100 -147h-140zM578 0h-539v124l321 430h-287l-21 136h517v-124l-321 -430h309z" />
    <glyph glyph-name="zcaron" unicode="&#x17e;" horiz-adv-x="467" 
d="M67 694h96l74 -58l74 58h96l-100 -147h-140zM443 0h-416v114l217 258h-191l-18 118h396v-115l-216 -257h209z" />
    <glyph glyph-name="Zdotaccent" unicode="&#x17b;" horiz-adv-x="611" 
d="M578 0h-539v124l321 430h-287l-21 136h517v-124l-321 -430h309zM380 742h-135v131h135v-131z" />
    <glyph glyph-name="zdotaccent" unicode="&#x17c;" horiz-adv-x="467" 
d="M443 0h-416v114l217 258h-191l-18 118h396v-115l-216 -257h209zM304 548h-135v131h135v-131z" />
    <glyph glyph-name="AE" unicode="&#xc6;" horiz-adv-x="907" 
d="M1 0l339 690h524v-138h-262v-130h200l22 -137h-222v-146h271v-139h-432v143h-197l-67 -143h-176zM304 277h137v299z" />
    <glyph glyph-name="ae" unicode="&#xe6;" horiz-adv-x="781" 
d="M751 246c0 -13 -1 -32 -2 -39h-295c8 -77 55 -107 120 -107c54 0 108 20 161 52l16 -107c-53 -34 -118 -55 -195 -55c-81 0 -149 24 -194 73c-55 -46 -112 -73 -180 -73c-89 0 -154 44 -154 135c0 113 86 169 277 187v9c0 43 -21 62 -71 62c-55 0 -106 -14 -158 -37
l-18 114c56 23 120 38 191 38c79 0 122 -19 151 -65c35 42 80 67 142 67c143 0 209 -112 209 -254zM607 290c-4 74 -31 112 -77 112c-41 0 -72 -37 -76 -112h153zM319 138c-9 30 -15 63 -15 99v1c-100 -16 -127 -51 -127 -90c0 -34 20 -50 52 -50c31 0 60 13 90 40z" />
    <glyph glyph-name="AEacute" unicode="&#x1fc;" horiz-adv-x="907" 
d="M1 0l339 690h524v-138h-262v-130h200l22 -137h-222v-146h271v-139h-432v143h-197l-67 -143h-176zM693 862l-147 -121h-96l60 151zM304 277h137v299z" />
    <glyph glyph-name="aeacute" unicode="&#x1fd;" horiz-adv-x="781" 
d="M580 668l-147 -121h-96l60 151zM751 246c0 -13 -1 -32 -2 -39h-295c8 -77 55 -107 120 -107c54 0 108 20 161 52l16 -107c-53 -34 -118 -55 -195 -55c-81 0 -149 24 -194 73c-55 -46 -112 -73 -180 -73c-89 0 -154 44 -154 135c0 113 86 169 277 187v9
c0 43 -21 62 -71 62c-55 0 -106 -14 -158 -37l-18 114c56 23 120 38 191 38c79 0 122 -19 151 -65c35 42 80 67 142 67c143 0 209 -112 209 -254zM607 290c-4 74 -31 112 -77 112c-41 0 -72 -37 -76 -112h153zM319 138c-9 30 -15 63 -15 99v1c-100 -16 -127 -51 -127 -90
c0 -34 20 -50 52 -50c31 0 60 13 90 40z" />
    <glyph glyph-name="OE" unicode="&#x152;" horiz-adv-x="909" 
d="M875 0h-471c-240 0 -365 140 -365 344c0 205 128 346 361 346h466v-138h-262v-130h200l21 -137h-221v-146h271v-139zM438 133v424h-29c-122 0 -199 -64 -199 -212c0 -145 81 -212 199 -212h29z" />
    <glyph glyph-name="oe" unicode="&#x153;" horiz-adv-x="830" 
d="M800 246c0 -13 -1 -32 -2 -39h-295c9 -77 56 -107 121 -107c54 0 107 20 161 52l15 -107c-53 -34 -111 -55 -191 -55c-84 0 -146 29 -184 83c-38 -51 -94 -83 -169 -83c-128 0 -228 97 -228 254s100 256 233 256c73 0 130 -31 165 -84c38 52 93 84 164 84
c144 0 210 -112 210 -254zM656 290c-5 74 -30 112 -76 112c-42 0 -73 -37 -77 -112h153zM353 244c0 79 -32 132 -90 132s-89 -51 -89 -131c0 -79 32 -133 89 -133c58 0 90 53 90 132z" />
    <glyph glyph-name="Eth" unicode="&#xd0;" horiz-adv-x="733" 
d="M696 346c0 -205 -128 -346 -361 -346h-243v283h-63l-23 143h86v264h238c240 0 366 -139 366 -344zM523 345c0 145 -80 212 -198 212h-66v-134h122v-138h-122v-152h66c122 0 198 64 198 212z" />
    <glyph glyph-name="eth" unicode="&#xf0;" horiz-adv-x="539" 
d="M247 503h-87l52 73c-25 11 -53 20 -83 28l18 117c51 -11 97 -25 139 -44l31 45l86 -18l-49 -66c98 -68 154 -173 154 -326c0 -115 -31 -202 -88 -259c-43 -44 -95 -64 -164 -64c-127 0 -227 85 -227 236c0 142 81 235 186 235c57 0 103 -21 144 -58
c-10 61 -39 105 -84 138zM265 107c61 0 98 66 98 190v3c-32 26 -71 42 -105 42c-49 0 -84 -43 -84 -121c0 -71 36 -114 91 -114z" />
    <glyph glyph-name="Thorn" unicode="&#xde;" horiz-adv-x="583" 
d="M555 359c0 -156 -111 -236 -278 -236h-43v-123h-171v690h171v-106h50c169 0 271 -75 271 -225zM390 356c0 66 -39 99 -115 99h-43v-203h40c76 0 118 33 118 104z" />
    <glyph glyph-name="thorn" unicode="&#xfe;" horiz-adv-x="544" 
d="M513 258c0 -186 -99 -263 -207 -263c-44 0 -75 8 -103 17v-175l-151 -23v884l151 24v-289c31 34 74 67 133 67c101 0 177 -76 177 -242zM361 248c0 82 -31 117 -74 117c-33 0 -58 -20 -84 -50v-186c21 -10 39 -15 68 -15c52 0 90 39 90 134z" />
    <glyph glyph-name="schwa" unicode="&#x259;" horiz-adv-x="505" 
d="M30 445c53 33 118 55 195 55c147 0 252 -79 252 -253c0 -160 -98 -257 -230 -257c-151 0 -217 112 -217 254c0 15 0 30 2 39h295c-8 77 -55 107 -121 107c-54 0 -107 -20 -161 -52zM251 87c41 0 72 37 77 112h-154c4 -73 31 -112 77 -112z" />
    <glyph glyph-name="germandbls" unicode="&#xdf;" horiz-adv-x="613" 
d="M591 157c0 -107 -68 -164 -176 -164c-51 0 -99 12 -140 32l19 114c35 -21 71 -33 102 -33s51 16 51 47c0 35 -31 72 -144 106l-15 100c36 53 61 110 61 169c0 48 -20 74 -58 74c-39 0 -59 -29 -59 -80v-522h-151v367h-68v123h68v21c0 133 76 206 212 206
s202 -74 202 -176c0 -82 -35 -134 -83 -188c116 -39 179 -96 179 -196z" />
    <glyph glyph-name="zero" unicode="0" horiz-adv-x="634" 
d="M598 338c0 -226 -112 -351 -280 -351c-169 0 -282 125 -282 351s113 351 282 351c168 0 280 -125 280 -351zM433 338c0 144 -37 224 -115 224s-116 -80 -116 -224s38 -224 116 -224s115 80 115 224z" />
    <glyph glyph-name="one" unicode="1" horiz-adv-x="407" 
d="M339 0h-168v520l-135 -53l-19 130l173 80h149v-677z" />
    <glyph glyph-name="two" unicode="2" horiz-adv-x="552" 
d="M517 0h-477v119l233 233c45 46 68 78 68 123c0 46 -32 72 -87 72c-60 0 -121 -27 -179 -69l-20 142c58 39 129 67 224 67c139 0 225 -73 225 -194c0 -92 -46 -152 -128 -230l-135 -130h255z" />
    <glyph glyph-name="three" unicode="3" horiz-adv-x="545" 
d="M508 189c0 -131 -109 -202 -255 -202c-87 0 -165 21 -222 53l21 130c56 -31 119 -50 186 -50c66 0 107 27 107 78c0 55 -37 86 -131 86h-57l-20 124h72c86 0 123 31 123 79c0 43 -32 69 -97 69c-62 0 -122 -21 -173 -56l-21 127c53 36 130 62 219 62
c151 0 237 -73 237 -178c0 -89 -49 -134 -119 -160c81 -26 130 -73 130 -162z" />
    <glyph glyph-name="three.alt" horiz-adv-x="545" 
d="M508 206c0 -132 -96 -219 -252 -219c-88 0 -166 22 -225 52l22 132c55 -30 122 -50 183 -50c72 0 111 30 111 87c0 58 -49 85 -144 85h-55l-16 99l165 152h-235l-22 132h452v-121l-174 -156c112 -20 190 -71 190 -193z" />
    <glyph glyph-name="four" unicode="4" horiz-adv-x="610" 
d="M591 135h-95v-135h-157v135h-313v104l285 438h185v-429h95v-113zM339 248v268l-173 -268h173z" />
    <glyph glyph-name="four.alt" horiz-adv-x="610" 
d="M591 135h-95v-135h-154v135h-316v112l287 436l145 -34l-270 -399h156v146l152 34v-180h95v-115z" />
    <glyph glyph-name="five" unicode="5" horiz-adv-x="555" 
d="M519 226c0 -155 -114 -239 -273 -239c-84 0 -153 19 -212 46l22 139c55 -27 119 -49 189 -49c68 0 118 34 118 95c0 55 -37 88 -103 88c-41 0 -71 -9 -97 -20l-103 23l23 367h399l21 -135h-294l-8 -120c23 6 54 12 96 12c131 0 222 -72 222 -207z" />
    <glyph glyph-name="six" unicode="6" horiz-adv-x="577" 
d="M447 558c-127 -29 -222 -82 -255 -178c49 32 100 49 163 49c105 0 192 -66 192 -204c0 -144 -109 -238 -251 -238c-154 0 -260 99 -260 286c0 242 167 374 391 417zM297 311c-39 0 -75 -15 -111 -39c1 -114 48 -164 110 -164c58 0 96 41 96 106s-32 97 -95 97z" />
    <glyph glyph-name="seven" unicode="7" horiz-adv-x="541" 
d="M505 547l-250 -554l-159 28l237 516h-283l-21 139h476v-129z" />
    <glyph glyph-name="eight" unicode="8" horiz-adv-x="589" 
d="M35 177c0 72 45 133 120 175c-64 37 -98 87 -98 154c0 116 104 183 242 183c145 0 234 -73 234 -174c0 -65 -38 -117 -101 -157c81 -40 121 -90 121 -173c0 -113 -98 -198 -259 -198c-170 0 -259 87 -259 190zM188 192c0 -55 47 -92 109 -92c57 0 100 35 100 84
c0 53 -32 78 -137 119c-43 -29 -72 -66 -72 -111zM206 509c0 -43 29 -70 115 -103c39 27 63 58 63 99c0 46 -37 77 -91 77c-52 0 -87 -31 -87 -73z" />
    <glyph glyph-name="nine" unicode="9" horiz-adv-x="577" 
d="M122 118c131 25 226 76 260 168c-49 -31 -99 -48 -156 -48c-113 0 -196 67 -196 209c0 149 108 242 251 242c153 0 260 -99 260 -286c0 -243 -169 -375 -400 -417zM281 356c37 0 73 12 110 37v2c0 121 -47 173 -110 173c-57 0 -96 -40 -96 -110c0 -69 32 -102 96 -102z
" />
    <glyph glyph-name="period" unicode="." horiz-adv-x="259" 
d="M211 0h-163v172h163v-172z" />
    <glyph glyph-name="comma" unicode="," horiz-adv-x="259" 
d="M237 172l-125 -320l-90 21l44 299h171z" />
    <glyph glyph-name="comma.alt" horiz-adv-x="259" 
d="M55 172h155c9 -28 13 -56 13 -84c0 -77 -35 -153 -124 -239l-84 36c40 71 56 129 56 185c0 35 -6 68 -16 102z" />
    <glyph glyph-name="colon" unicode=":" horiz-adv-x="268" 
d="M215 320h-162v170h162v-170zM215 0h-162v170h162v-170z" />
    <glyph glyph-name="semicolon" unicode=";" horiz-adv-x="268" 
d="M221 320h-162v170h162v-170zM232 170l-124 -318l-91 21l44 297h171z" />
    <glyph glyph-name="semicolon.alt" horiz-adv-x="268" 
d="M219 320h-162v170h162v-170zM55 170h155c9 -27 13 -55 13 -82c0 -77 -35 -153 -124 -239l-84 36c40 71 56 130 56 185c0 35 -6 67 -16 100z" />
    <glyph glyph-name="ellipsis" unicode="&#x2026;" horiz-adv-x="779" 
d="M728 0h-160v171h160v-171zM469 0h-159v171h159v-171zM211 0h-160v171h160v-171z" />
    <glyph glyph-name="periodcentered" unicode="&#xb7;" horiz-adv-x="259" 
d="M211 204h-162v173h162v-173z" />
    <glyph glyph-name="bullet" unicode="&#x2022;" horiz-adv-x="482" 
d="M412 344l-24 -156l-147 -23l-146 23l-25 156l25 157l146 23l147 -23z" />
    <glyph glyph-name="ampersand" unicode="&#x26;" horiz-adv-x="662" 
d="M673 16l-169 -22l-59 67c-54 -48 -119 -73 -193 -73c-135 0 -225 73 -225 194c0 95 53 159 134 202c-40 51 -55 90 -55 146c0 94 71 173 203 173c79 0 140 -19 186 -42l-23 -139c-55 30 -102 48 -146 48c-41 0 -62 -22 -62 -52c0 -24 12 -45 41 -77l141 -163
c13 37 22 82 29 134l128 -28c-12 -84 -34 -152 -67 -210zM273 110c33 0 66 12 96 38l-132 150c-38 -29 -57 -63 -57 -102c0 -51 35 -86 93 -86z" />
    <glyph glyph-name="exclam" unicode="!" horiz-adv-x="295" 
d="M242 690l-47 -432l-92 -20l-49 452h188zM229 0h-163v172h163v-172z" />
    <glyph glyph-name="exclamdown" unicode="&#xa1;" horiz-adv-x="295" 
d="M229 518h-163v172h163v-172zM242 0h-188l46 432l92 21z" />
    <glyph glyph-name="question" unicode="?" horiz-adv-x="506" 
d="M293 0h-162v172h162v-172zM270 285l-3 -33l-99 -23l-11 152l31 10c99 29 133 59 133 107c0 41 -30 66 -85 66c-63 0 -131 -30 -189 -71l-21 140c59 40 133 70 232 70c141 0 223 -71 223 -192c0 -116 -73 -182 -211 -226z" />
    <glyph glyph-name="questiondown" unicode="&#xbf;" horiz-adv-x="506" 
d="M213 690h162v-172h-162v172zM236 405l3 33l99 23l11 -152l-31 -10c-97 -31 -133 -59 -133 -107c0 -41 30 -66 85 -66c63 0 131 30 189 71l21 -140c-59 -40 -133 -70 -232 -70c-141 0 -223 71 -223 192c0 116 73 182 211 226z" />
    <glyph glyph-name="quotedblleft" unicode="&#x201c;" horiz-adv-x="481" 
d="M213 678l-21 -294h-169l101 315zM438 678l-21 -294h-168l100 315z" />
    <glyph glyph-name="quotedblright" unicode="&#x201d;" horiz-adv-x="481" 
d="M232 690l-100 -315l-89 21l21 294h168zM458 690l-100 -315l-90 21l22 294h168z" />
    <glyph glyph-name="quotedblleft.alt" horiz-adv-x="476" 
d="M200 384h-149c-10 31 -15 62 -15 93c0 73 29 146 98 224l80 -36c-21 -56 -31 -110 -31 -160c0 -42 6 -81 17 -121zM423 384h-150c-9 31 -14 62 -14 93c0 73 29 146 98 224l80 -36c-22 -56 -32 -110 -32 -160c0 -42 7 -81 18 -121z" />
    <glyph glyph-name="quotedblright.alt" horiz-adv-x="476" 
d="M53 690h149c10 -31 15 -62 15 -93c0 -74 -29 -146 -98 -224l-80 36c21 56 31 110 31 160c0 42 -6 81 -17 121zM275 690h150c9 -31 14 -62 14 -93c0 -74 -29 -146 -98 -224l-80 36c22 56 32 110 32 160c0 42 -7 81 -18 121z" />
    <glyph glyph-name="quoteleft" unicode="&#x2018;" horiz-adv-x="259" 
d="M216 678l-22 -294h-171l101 315z" />
    <glyph glyph-name="quoteright" unicode="&#x2019;" horiz-adv-x="259" 
d="M235 690l-100 -315l-92 21l21 294h171z" />
    <glyph glyph-name="quoteleft.alt" horiz-adv-x="253" 
d="M207 384h-150c-9 31 -15 62 -15 93c0 73 30 146 98 224l81 -36c-22 -56 -32 -110 -32 -160c0 -42 7 -81 18 -121z" />
    <glyph glyph-name="quoteright.alt" horiz-adv-x="253" 
d="M53 690h149c10 -31 15 -62 15 -93c0 -74 -29 -146 -98 -224l-80 36c21 56 31 110 31 160c0 42 -6 81 -17 121z" />
    <glyph glyph-name="quotedblbase" unicode="&#x201e;" horiz-adv-x="481" 
d="M227 172l-100 -315l-90 21l22 294h168zM452 172l-100 -315l-89 21l21 294h168z" />
    <glyph glyph-name="quotesinglbase" unicode="&#x201a;" horiz-adv-x="259" 
d="M230 172l-101 -315l-92 21l22 294h171z" />
    <glyph glyph-name="quotedblbase.alt" horiz-adv-x="481" 
d="M47 172h150c9 -31 14 -62 14 -92c0 -74 -29 -147 -98 -225l-80 36c22 56 32 110 32 160c0 42 -7 81 -18 121zM270 172h149c10 -31 15 -62 15 -92c0 -74 -29 -147 -98 -225l-80 36c21 56 31 110 31 160c0 42 -6 81 -17 121z" />
    <glyph glyph-name="quotesinglbase.alt" horiz-adv-x="259" 
d="M47 172h150c9 -31 14 -62 14 -92c0 -74 -29 -147 -98 -225l-80 36c22 56 32 110 32 160c0 42 -7 81 -18 121z" />
    <glyph glyph-name="guillemotleft" unicode="&#xab;" horiz-adv-x="571" 
d="M297 490l-109 -245l103 -233l-98 -21l-171 254l166 245h109zM535 490l-108 -245l102 -233l-98 -21l-171 254l167 245h108z" />
    <glyph glyph-name="guillemotright" unicode="&#xbb;" horiz-adv-x="571" 
d="M549 244l-166 -244h-109l109 244l-103 233l98 21zM311 244l-166 -244h-109l108 244l-102 233l98 21z" />
    <glyph glyph-name="guilsinglleft" unicode="&#x2039;" horiz-adv-x="333" 
d="M297 490l-109 -245l103 -233l-98 -21l-171 254l166 245h109z" />
    <glyph glyph-name="guilsinglright" unicode="&#x203a;" horiz-adv-x="333" 
d="M311 244l-166 -244h-109l108 244l-102 233l97 21z" />
    <glyph glyph-name="hyphen" unicode="-" horiz-adv-x="354" 
d="M314 219h-273v144h273v-144z" />
    <glyph glyph-name="endash" unicode="&#x2013;" horiz-adv-x="454" 
d="M413 220h-372v141h372v-141z" />
    <glyph glyph-name="emdash" unicode="&#x2014;" horiz-adv-x="908" 
d="M867 221h-826v139h826v-139z" />
    <glyph glyph-name="underscore" unicode="_" horiz-adv-x="454" 
d="M456 -104h-458v70h458v-70z" />
    <glyph glyph-name="slash" unicode="/" horiz-adv-x="530" 
d="M519 672l-430 -799l-125 27l430 799z" />
    <glyph glyph-name="backslash" unicode="\" horiz-adv-x="530" 
d="M566 -101l-125 -26l-430 799l125 27z" />
    <glyph glyph-name="bar" unicode="|" horiz-adv-x="300" 
d="M213 -166l-126 -20v888l126 20v-888z" />
    <glyph glyph-name="parenleft" unicode="(" horiz-adv-x="404" 
d="M389 -67l-116 -27c-131 102 -228 221 -228 404c0 196 108 328 298 416l15 -102c-95 -82 -144 -177 -144 -312c0 -147 54 -252 175 -379z" />
    <glyph glyph-name="parenright" unicode=")" horiz-adv-x="404" 
d="M15 695l116 27c131 -102 228 -220 228 -403c0 -197 -108 -329 -298 -417l-15 102c95 82 144 177 144 312c0 147 -54 252 -175 379z" />
    <glyph glyph-name="bracketleft" unicode="[" horiz-adv-x="418" 
d="M384 -104h-313v794h307v-93h-162v-608h153z" />
    <glyph glyph-name="bracketright" unicode="]" horiz-adv-x="418" 
d="M34 690h313v-794h-307v93h162v608h-153z" />
    <glyph glyph-name="braceleft" unicode="{" horiz-adv-x="506" 
d="M470 -104h-155c-103 0 -156 50 -156 131c0 47 13 88 13 132c0 67 -40 88 -107 88h-25l-15 93h41c66 0 106 21 106 87c0 45 -13 86 -13 132c0 81 53 131 156 131h150v-93h-89c-46 0 -68 -20 -68 -57c0 -40 13 -74 13 -119c0 -74 -41 -111 -114 -127v-2
c73 -16 114 -53 114 -127c0 -44 -13 -79 -13 -119c0 -36 21 -57 68 -57h79z" />
    <glyph glyph-name="braceright" unicode="}" horiz-adv-x="506" 
d="M35 690h155c103 0 156 -50 156 -131c0 -47 -14 -88 -14 -132c0 -67 41 -88 107 -88h26l14 -93h-40c-66 0 -107 -21 -107 -87c0 -45 14 -86 14 -132c0 -81 -53 -131 -156 -131h-150v93h89c46 0 68 20 68 57c0 40 -14 74 -14 119c0 74 41 111 115 127v2
c-74 16 -115 53 -115 127c0 44 14 79 14 119c0 36 -21 57 -68 57h-79z" />
    <glyph glyph-name="at" unicode="@" horiz-adv-x="835" 
d="M598 43c-68 0 -122 33 -140 86c-52 -59 -94 -86 -144 -86c-63 0 -108 44 -108 129c0 172 117 297 248 297c59 0 118 -14 167 -35l-41 -220c-2 -14 -6 -36 -6 -55c0 -29 16 -54 62 -54c67 0 116 77 116 206c0 200 -123 294 -294 294c-200 0 -376 -180 -376 -414
c0 -212 124 -296 297 -296c80 0 153 18 213 48l6 -36c-55 -27 -134 -47 -223 -47c-208 0 -337 111 -337 330c0 241 191 451 424 451c200 0 334 -120 334 -329c0 -160 -72 -269 -198 -269zM367 145c23 0 47 18 90 68l29 153c-10 4 -24 6 -39 6c-61 0 -117 -80 -117 -175
c0 -39 15 -52 37 -52z" />
    <glyph glyph-name="copyright" unicode="&#xa9;" horiz-adv-x="799" 
d="M745 346c0 -213 -142 -359 -346 -359c-205 0 -345 144 -345 357c0 214 142 359 346 359c205 0 345 -144 345 -357zM701 345c0 207 -132 322 -301 322c-172 0 -302 -115 -302 -322s132 -322 302 -322c171 0 301 115 301 322zM545 177c-39 -22 -78 -32 -125 -32
c-127 0 -204 82 -204 203s83 203 202 203c47 0 86 -10 120 -26l-15 -98c-35 23 -62 32 -98 32c-59 0 -93 -46 -93 -110c0 -68 39 -111 100 -111c30 0 61 8 99 30z" />
    <glyph glyph-name="published" unicode="&#x2117;" horiz-adv-x="799" 
d="M745 346c0 -213 -142 -359 -346 -359c-205 0 -345 144 -345 357c0 214 142 359 346 359c205 0 345 -144 345 -357zM701 345c0 207 -132 322 -301 322c-172 0 -302 -115 -302 -322s132 -322 302 -322c171 0 301 115 301 322zM573 412c0 -90 -64 -138 -162 -138h-32v-124
h-110v394h148c95 0 156 -48 156 -132zM468 410c0 36 -23 55 -62 55h-28v-113h27c39 0 63 20 63 58z" />
    <glyph glyph-name="registered.alt" horiz-adv-x="799" 
d="M745 346c0 -213 -142 -359 -346 -359c-205 0 -345 144 -345 357c0 214 142 359 346 359c205 0 345 -144 345 -357zM701 345c0 207 -132 322 -301 322c-172 0 -302 -115 -302 -322s132 -322 302 -322c171 0 301 115 301 322zM476 150l-89 133h-23v-128h-108v394h141
c102 0 161 -47 161 -129c0 -51 -25 -88 -67 -111l98 -139zM363 470v-113h27c43 0 64 20 64 57c0 36 -22 56 -64 56h-27z" />
    <glyph glyph-name="registered" unicode="&#xae;" horiz-adv-x="563" 
d="M508 470c0 -138 -95 -232 -227 -232c-134 0 -227 93 -227 232c0 138 95 233 227 233c134 0 227 -94 227 -233zM475 470c0 132 -86 206 -194 206s-194 -74 -194 -206c0 -131 86 -205 194 -205c109 0 194 74 194 205zM404 359l-75 -12l-58 92h-14v-89h-69v256h98
c63 0 100 -28 100 -80c0 -37 -20 -60 -46 -71zM317 521c0 22 -14 35 -39 35h-21v-71h20c26 0 40 12 40 36z" />
    <glyph glyph-name="servicemark" unicode="&#x2120;" horiz-adv-x="812" 
d="M775 345h-96l-14 216l-64 -218h-86l-64 218l-15 -216h-82l26 345h120l67 -225l67 225h115zM181 340c-42 0 -79 10 -116 28l14 78c36 -21 73 -34 105 -34c21 0 35 10 35 27c0 18 -11 28 -49 43c-69 29 -98 52 -98 110c0 65 52 103 117 103c42 0 71 -9 99 -24l-11 -78
c-35 20 -64 30 -89 30c-22 0 -33 -11 -33 -24c0 -15 9 -25 44 -39c74 -31 105 -55 105 -114c0 -73 -54 -106 -123 -106z" />
    <glyph glyph-name="servicemark.alt" horiz-adv-x="820" 
d="M181 340c-42 0 -79 10 -116 28l14 78c36 -21 73 -34 105 -34c21 0 35 10 35 27c0 18 -11 28 -49 43c-69 29 -98 52 -98 110c0 65 52 103 117 103c42 0 71 -9 99 -24l-11 -78c-35 20 -64 30 -89 30c-22 0 -33 -11 -33 -24c0 -15 9 -25 44 -39c74 -31 105 -55 105 -114
c0 -73 -54 -106 -123 -106zM769 345h-90v222l-78 -225h-76l-78 225v-222h-86v345h124l83 -228l78 228h123v-345z" />
    <glyph glyph-name="trademark" unicode="&#x2122;" horiz-adv-x="812" 
d="M777 345h-96l-14 216l-64 -218h-86l-64 218l-15 -216h-82l26 345h120l67 -225l67 225h115zM333 615h-109v-270h-93v270h-103v75h294z" />
    <glyph glyph-name="trademark.alt" horiz-adv-x="827" 
d="M779 345h-90v222l-78 -225h-76l-77 225v-222h-86v345h123l83 -228l78 228h123v-345zM333 615h-109v-270h-93v270h-103v75h294z" />
    <glyph glyph-name="asterisk" unicode="*" horiz-adv-x="438" 
d="M407 546l-107 -69l47 -119l-31 -20l-97 80l-98 -80l-30 20l47 119l-107 69l11 35l128 -7l29 122h39l30 -122l128 7z" />
    <glyph glyph-name="dagger" unicode="&#x2020;" horiz-adv-x="512" 
d="M324 611l-51 -135h-34l-50 135v79h135v-79zM473 373h-42l-135 47v33l135 47h42v-127zM216 420l-135 -47h-42v127h42l135 -47v-33zM311 11l-40 -125h-31l-40 125v268l39 119h34l38 -119v-268z" />
    <glyph glyph-name="daggerdbl" unicode="&#x2021;" horiz-adv-x="531" 
d="M333 611l-51 -135h-34l-50 135v79h135v-79zM482 377h-42l-135 43v33l135 44h42v-120zM225 420l-135 -43h-42v120h42l135 -44v-33zM327 230l-45 -119h-34l-45 119v49l45 119h34l45 -119v-49zM482 12h-42l-135 43v33l135 44h42v-120zM225 55l-135 -43h-42v120h42l135 -44
v-33zM333 -182h-135v79l50 136h34l51 -136v-79z" />
    <glyph glyph-name="asciicircum" unicode="^" horiz-adv-x="454" 
d="M398 547h-96l-74 58l-74 -58h-96l100 147h140z" />
    <glyph glyph-name="asciitilde" unicode="~" horiz-adv-x="409" 
d="M372 355c-14 -103 -45 -140 -96 -140c-25 0 -43 8 -71 20c-38 16 -50 21 -65 21s-24 -9 -32 -44l-71 15c13 104 45 140 96 140c25 0 42 -8 70 -19c39 -18 50 -22 66 -22c14 0 23 10 32 45z" />
    <glyph glyph-name="dollar" unicode="$" horiz-adv-x="549" 
d="M376 739l-10 -66c45 -9 86 -23 122 -42l-21 -123c-38 22 -80 39 -125 49l-22 -146c129 -40 192 -91 192 -208c0 -142 -102 -208 -247 -208h-1l-17 -117l-73 16l15 107c-58 9 -112 27 -160 53l19 121c60 -32 111 -51 165 -59l25 171c-122 38 -191 82 -191 199
c0 122 86 195 235 195h9l12 74zM377 186c0 36 -17 59 -78 82l-24 -156c67 0 102 26 102 74zM182 503c0 -33 17 -52 78 -73l20 135h-11c-61 0 -87 -24 -87 -62z" />
    <glyph glyph-name="sterling" unicode="&#xa3;" horiz-adv-x="551" 
d="M47 399h94l36 115c37 122 106 175 227 175c46 0 81 -6 108 -15l-20 -135c-24 8 -44 11 -71 11c-52 0 -79 -23 -98 -84l-21 -67h124l20 -127h-184l-44 -142h277l21 -130h-469v101l54 171h-54v127z" />
    <glyph glyph-name="Euro" unicode="&#x20ac;" horiz-adv-x="609" 
d="M25 380v77h88c36 139 136 230 290 230c69 0 126 -14 172 -39l-22 -133c-43 25 -81 39 -136 39c-65 0 -112 -35 -134 -97h194l13 -77h-222c-1 -14 -1 -28 -1 -42c0 -11 0 -23 1 -34h215v-77h-202c22 -71 72 -105 147 -105c48 0 92 14 137 39l21 -129
c-53 -26 -108 -43 -182 -43c-166 0 -265 86 -295 238h-78l-12 77h81c-1 11 -1 21 -1 33c0 14 1 29 2 43h-76z" />
    <glyph glyph-name="yen" unicode="&#xa5;" horiz-adv-x="641" 
d="M78 222v76h133l-203 362l175 23l142 -283l137 276h172l-217 -378h129l12 -76h-161v-65h156v-76h-156v-81h-164v81h-148l-12 76h160v65h-155z" />
    <glyph glyph-name="cent" unicode="&#xa2;" horiz-adv-x="494" 
d="M458 131c-51 -28 -100 -42 -159 -43l-15 -98l-75 17l13 87c-114 24 -185 112 -185 243c0 160 112 250 258 250h3l15 98l76 -17l-14 -89c30 -6 56 -16 79 -28l-19 -121c-27 15 -55 27 -85 33l-39 -254c40 1 81 10 131 38zM180 335c0 -60 24 -100 68 -117l39 249
c-70 -6 -107 -51 -107 -132z" />
    <glyph glyph-name="florin" unicode="&#x192;" horiz-adv-x="445" 
d="M382 457v-125h-113l-53 -332h-161l52 332h-74l18 125h76l9 58c19 126 85 169 202 169c32 0 57 -2 80 -5v-124c-14 3 -30 5 -48 5c-45 0 -67 -21 -75 -70l-6 -33h93z" />
    <glyph glyph-name="numbersign" unicode="#" horiz-adv-x="673" 
d="M552 664l-21 -129h104v-127h-124l-22 -140h111l19 -127h-150l-23 -143h-95l22 143h-136l-24 -150l-92 21l20 129h-103v127h123l22 140h-109l-21 127h150l23 143h96l-23 -143h137l24 150zM278 411l-23 -146h139l23 146h-139z" />
    <glyph glyph-name="paragraph" unicode="&#xb6;" horiz-adv-x="550" 
d="M481 0h-90v607h-66v-164l-36 -220c-155 5 -254 80 -254 228c0 142 98 225 257 225h189v-676z" />
    <glyph glyph-name="section" unicode="&#xa7;" horiz-adv-x="569" 
d="M538 365c0 -33 -14 -69 -33 -95l-111 18c8 13 13 26 13 41c0 25 -18 37 -76 51l-78 19c-97 24 -152 58 -152 141c0 93 77 144 182 144c66 0 113 -9 163 -26l-17 -104c-48 20 -95 31 -136 31c-35 0 -51 -14 -51 -32c0 -20 14 -28 59 -40l86 -21c108 -27 151 -56 151 -127z
M32 311c0 33 13 70 33 95l110 -18c-7 -13 -12 -26 -12 -41c0 -25 17 -37 76 -51l77 -19c97 -24 152 -58 152 -141c0 -93 -77 -144 -181 -144c-66 0 -113 9 -163 26l16 104c48 -19 96 -31 137 -31c35 0 51 14 51 32c0 20 -15 28 -59 40l-87 21c-107 27 -150 56 -150 127z" />
    <glyph glyph-name="ordfeminine" unicode="&#xaa;" horiz-adv-x="401" 
d="M342 354h-91l-7 40c-31 -28 -64 -46 -107 -46c-54 0 -90 34 -90 87c0 74 58 111 192 121v6c0 32 -19 43 -55 43c-37 0 -71 -9 -106 -24l-11 74c37 15 83 26 139 26c90 0 136 -33 136 -111v-216zM352 222h-301v73h289zM239 445v63c-69 -10 -92 -33 -92 -57
c0 -20 11 -32 31 -32s42 10 61 26z" />
    <glyph glyph-name="ordmasculine" unicode="&#xba;" horiz-adv-x="402" 
d="M364 514c0 -103 -69 -166 -164 -166c-93 0 -162 63 -162 166s69 167 162 167c95 0 164 -64 164 -167zM358 222h-310v73h298zM261 514c0 51 -22 85 -61 85c-38 0 -59 -35 -59 -85c0 -51 21 -85 59 -85c39 0 61 34 61 85z" />
    <glyph glyph-name="degree" unicode="&#xb0;" horiz-adv-x="446" 
d="M400 505c0 -103 -74 -176 -177 -176s-177 73 -177 176c0 102 74 177 177 177s177 -75 177 -177zM310 505c0 53 -35 94 -87 94s-87 -41 -87 -94c0 -54 35 -93 87 -93s87 39 87 93z" />
    <glyph glyph-name="percent" unicode="%" horiz-adv-x="894" 
d="M373 486c0 -129 -74 -200 -167 -200c-94 0 -168 70 -168 199s75 199 168 199s167 -70 167 -198zM275 -7l-89 21l218 333l214 336l90 -20l-219 -335zM856 191c0 -128 -75 -199 -168 -199c-94 0 -167 70 -167 198c0 130 74 200 167 200c94 0 168 -70 168 -199zM268 486
c0 71 -21 114 -62 114c-43 0 -64 -42 -64 -115c0 -70 22 -114 64 -114s62 43 62 115zM751 191c0 71 -22 114 -63 114c-43 0 -63 -43 -63 -115c0 -71 22 -114 63 -114c42 0 63 43 63 115z" />
    <glyph glyph-name="quotedbl" unicode="&#x22;" horiz-adv-x="520" 
d="M473 676l-43 -300l-97 21l-41 279h181zM228 676l-44 -300l-97 21l-40 279h181z" />
    <glyph glyph-name="quotesingle" unicode="'" horiz-adv-x="278" 
d="M231 676l-43 -300l-101 21l-40 279h184z" />
    <glyph glyph-name="plus" unicode="+" horiz-adv-x="572" 
d="M518 279h-171v-177h-122v177h-171v118h171v177h122v-177h171v-118z" />
    <glyph glyph-name="minus" unicode="&#x2212;" horiz-adv-x="572" 
d="M518 275h-464v126h464v-126z" />
    <glyph glyph-name="divide" unicode="&#xf7;" horiz-adv-x="572" 
d="M353 472h-134v130h134v-130zM518 280h-464v116h464v-116zM353 74h-134v130h134v-130z" />
    <glyph glyph-name="equal" unicode="=" horiz-adv-x="590" 
d="M518 399h-445v120h445v-120zM518 158h-445v119h445v-119z" />
    <glyph glyph-name="multiply" unicode="&#xd7;" horiz-adv-x="572" 
d="M425 113l-140 142l-139 -141l-84 84l141 139l-142 140l86 86l140 -142l139 141l84 -84l-141 -139l142 -140z" />
    <glyph glyph-name="less" unicode="&#x3c;" horiz-adv-x="572" 
d="M504 63l-447 222v106l447 222v-130l-298 -144l298 -145v-131z" />
    <glyph glyph-name="greater" unicode="&#x3e;" horiz-adv-x="572" 
d="M515 285l-447 -222v131l298 143l-298 145v131l447 -222v-106z" />
    <glyph glyph-name="plusminus" unicode="&#xb1;" horiz-adv-x="540" 
d="M464 358h-134v-140h-120v140h-135v114h135v140h120v-140h134v-114zM492 57h-444v116h444v-116z" />
    <glyph glyph-name="onehalf" unicode="&#xbd;" horiz-adv-x="810" 
d="M328 305h-276v86h87v194l-81 -31l-12 85l121 49h82v-297h64zM779 0h-291v82l131 120c24 20 36 34 36 55s-17 33 -42 33c-35 0 -70 -17 -105 -38l-13 93c37 22 81 39 140 39c86 0 134 -47 134 -109c0 -55 -31 -87 -78 -128l-67 -56h139zM242 -14l-68 18l213 341l201 339
l68 -18l-214 -341z" />
    <glyph glyph-name="onequarter" unicode="&#xbc;" horiz-adv-x="810" 
d="M328 305h-276v86h87v194l-81 -31l-12 85l121 49h82v-297h64zM778 70h-49v-73h-104v73h-165v69l138 240h131v-235h49v-74zM634 141v61l7 101h-7l-32 -70l-27 -47l-30 -44l3 -5l44 4h42zM257 -14l-68 18l213 341l201 339l68 -18l-214 -341z" />
    <glyph glyph-name="threequarters" unicode="&#xbe;" horiz-adv-x="810" 
d="M327 409c0 -70 -67 -111 -159 -111c-51 0 -101 11 -137 29l16 85c33 -16 77 -27 114 -27c35 0 56 14 56 37c0 26 -21 37 -79 37h-33l-14 73h48c55 0 71 17 71 37c0 19 -16 32 -49 32c-35 0 -77 -12 -107 -30l-16 84c37 19 80 34 138 34c91 0 144 -39 144 -100
c0 -45 -31 -74 -77 -88c54 -14 84 -44 84 -92zM778 70h-49v-73h-104v73h-165v69l138 240h131v-235h49v-74zM634 141v61l7 101h-7l-32 -70l-27 -47l-30 -44l3 -5l44 4h42zM247 -14l-68 18l213 341l201 339l68 -18l-214 -341z" />
    <glyph glyph-name="one.sup" unicode="&#xb9;" horiz-adv-x="360" 
d="M328 405h-276v86h87v194l-81 -31l-12 85l121 49h82v-297h64z" />
    <glyph glyph-name="two.sup" unicode="&#xb2;" horiz-adv-x="360" 
d="M329 405h-291v83l131 119c24 21 36 34 36 55c0 22 -17 33 -42 33c-35 0 -70 -17 -105 -37l-13 92c37 22 81 39 140 39c86 0 134 -47 134 -109c0 -54 -31 -86 -78 -127l-67 -57h139z" />
    <glyph glyph-name="three.sup" unicode="&#xb3;" horiz-adv-x="360" 
d="M327 509c0 -70 -67 -111 -159 -111c-51 0 -101 11 -137 29l16 85c33 -16 77 -27 114 -27c35 0 56 14 56 37c0 26 -21 37 -79 37h-33l-14 73h48c55 0 71 17 71 37c0 19 -16 32 -49 32c-35 0 -77 -12 -107 -30l-16 84c37 19 80 34 138 34c91 0 144 -39 144 -100
c0 -45 -31 -74 -77 -88c54 -14 84 -44 84 -92z" />
    <glyph glyph-name="space" unicode=" " horiz-adv-x="209" 
 />
    <glyph glyph-name="uni00A0" unicode="&#xa0;" horiz-adv-x="104" 
 />
    <glyph glyph-name="emspace" unicode="&#x2003;" horiz-adv-x="1000" 
 />
    <glyph glyph-name="enspace" unicode="&#x2002;" horiz-adv-x="500" 
 />
    <glyph glyph-name="threeperemspace" unicode="&#x2004;" horiz-adv-x="333" 
 />
    <glyph glyph-name="fourperemspace" unicode="&#x2005;" horiz-adv-x="250" 
 />
    <glyph glyph-name="thinspace" unicode="&#x2009;" horiz-adv-x="133" 
 />
    <glyph glyph-name="hairspace" unicode="&#x200a;" horiz-adv-x="75" 
 />
    <glyph glyph-name="NUL" horiz-adv-x="0" 
 />
    <glyph glyph-name="hcoslug" horiz-adv-x="694" 
d="M273 18h-26c0 -9 3 -12 10 -12c5 0 8 2 9 7h7c-2 -8 -7 -14 -18 -14c-13 0 -21 8 -21 20s9 21 20 21c14 0 20 -9 19 -22zM254 35c-4 0 -7 -3 -7 -12h14c0 8 -2 12 -7 12zM195 78c5 0 8 4 8 16c0 11 -3 15 -8 15s-8 -4 -8 -15c0 -12 3 -16 8 -16zM210 4c5 0 8 4 8 16
c0 11 -3 15 -8 15s-8 -4 -8 -15c0 -12 3 -16 8 -16zM210 -1c-12 0 -21 8 -21 21c0 12 9 20 21 20s21 -8 21 -20s-9 -21 -21 -21zM546 4c5 0 8 4 8 16c0 11 -3 15 -8 15s-8 -4 -8 -15c0 -12 3 -16 8 -16zM546 -1c-12 0 -21 8 -21 21c0 12 9 20 21 20s21 -8 21 -20
s-9 -21 -21 -21zM125 74v7h7v41h-7v7h51v-20h-8c-2 11 -4 13 -11 13h-12v-18h4c5 0 5 1 6 8h7v-23h-7c-1 7 -1 8 -6 8h-4v-16h10v-7h-30zM195 73c-12 0 -21 8 -21 21c0 12 9 20 21 20s21 -8 21 -20s-9 -21 -21 -21zM644 -100v800h-594v-800h594zM498 -1c-18 0 -29 11 -29 28
c0 18 13 30 27 30c7 0 12 -3 16 -7l1 6h8v-22h-8c-4 12 -7 16 -15 16s-14 -6 -14 -22c0 -15 6 -22 16 -22c8 0 13 7 14 16h8c-1 -14 -9 -23 -24 -23zM372 80c5 0 7 5 7 13s-2 13 -7 13c-6 0 -8 -6 -8 -13c0 -8 2 -13 8 -13zM276 0v7h6v25h-7v7h7v1c0 13 9 19 19 19
c3 0 7 -1 9 -2l10 2v-52h6v-7h-23v7h5v25h-14v-25h5v-7h-23zM368 0v7h6v25h-6v7h18v-10c3 8 7 11 12 11s8 -3 8 -8c0 -4 -3 -7 -7 -7c-3 0 -6 2 -6 6v1c-2 0 -5 -4 -7 -9v-16h8v-7h-26zM352 73v52h-6v7h18v-27c2 6 7 9 13 9c9 0 15 -8 15 -20c0 -9 -4 -21 -16 -21
c-7 0 -11 3 -14 8l-4 -8h-6zM400 75c7 0 8 -7 5 -10c4 0 7 3 8 8c-4 10 -16 33 -16 33h-5v7h25v-7h-6l9 -20l8 20h-5v7h17v-7h-5l-13 -31c-4 -10 -9 -16 -18 -16c-7 0 -11 4 -11 9c0 4 3 7 7 7zM247 428c0 17 11 29 27 29c17 0 29 -15 29 -38c0 -17 -7 -33 -18 -50
c-23 22 -38 36 -38 59zM302 74v14h7c4 -6 7 -9 12 -9c3 0 5 2 5 4c0 8 -24 3 -24 19c0 6 5 12 14 12c5 0 9 -2 11 -5l2 5h6v-13h-7c-3 4 -6 7 -10 7c-3 0 -5 -2 -5 -4c0 -8 24 -2 24 -18c0 -7 -5 -13 -14 -13c-7 0 -10 3 -13 5l-1 -4h-7zM261 219c-30 0 -52 23 -52 54
c0 15 5 29 16 40c18 -17 46 -47 74 -82c-11 -9 -23 -12 -38 -12zM274 122l12 2v-11h13v-7h-13v-20c0 -3 1 -5 4 -5c2 0 4 2 5 7l5 -2c-2 -9 -6 -13 -14 -13s-12 5 -12 13v20h-7v7h7v9zM428 306c-15 -9 -31 -22 -46 -42c25 -29 42 -41 62 -41c21 0 33 12 43 29l7 -2
c-2 -58 -37 -94 -80 -94c-30 0 -52 11 -85 45c-28 -31 -62 -45 -104 -45c-60 0 -109 40 -109 93c0 42 29 73 82 91c-21 22 -31 40 -31 69c0 43 42 85 109 85c62 0 95 -39 95 -74c0 -13 -3 -24 -9 -34c27 1 47 -10 49 -37c16 24 35 38 60 38c28 0 50 -21 50 -52
s-22 -54 -50 -54c-18 0 -34 10 -43 25zM219 74v7h6v25h-6v7h17v-10c3 7 7 11 14 11c9 0 12 -6 12 -14v-19h6v-7h-22v7h4v18c0 4 -2 7 -6 7s-7 -4 -7 -10v-15h4v-7h-22zM446 33h18v-7h-5c-3 -6 -6 -10 -9 -14c2 -3 4 -5 6 -5s3 1 4 5l5 -1c-2 -7 -5 -12 -13 -12
c-5 0 -8 1 -12 6c-4 -4 -9 -6 -15 -6c-12 0 -18 6 -18 14s6 13 13 15c-4 4 -6 7 -6 12c0 7 7 14 17 14c9 0 14 -6 14 -12s-4 -9 -11 -12c5 -5 8 -9 12 -13c2 2 5 6 6 9h-6v7zM429 6c2 0 5 1 8 3c-5 6 -9 11 -14 16c-2 -2 -4 -5 -4 -9c0 -6 4 -10 10 -10zM294 42v-3h14v5
c-3 0 -6 2 -6 6c0 2 1 3 1 3s-1 1 -3 1c-3 0 -6 -2 -6 -12zM425 43c0 -3 2 -6 6 -10c3 2 5 5 5 9c0 3 -2 6 -6 6c-3 0 -5 -2 -5 -5zM312 342c19 13 33 24 42 34c23 -23 18 -47 -1 -80c-13 15 -25 30 -41 46zM366 18h-26c0 -9 3 -12 10 -12c5 0 8 2 9 7h7
c-2 -8 -7 -14 -18 -14c-13 0 -21 8 -21 20s9 21 20 21c14 0 20 -9 19 -22zM347 35c-4 0 -7 -3 -7 -12h14c0 8 -2 12 -7 12zM124 0v7h8v41h-8v7h29v-7h-8v-16h22v16h-8v7h29v-7h-8v-41h8v-7h-29v7h8v18h-22v-18h8v-7h-29zM576 13c4 0 7 -3 7 -7s-3 -7 -7 -7s-7 3 -7 7
s3 7 7 7z" />
    <glyph glyph-name="A.flat" horiz-adv-x="709" 
d="M13 0l248 693h188l247 -693h-183l-48 143h-238l-46 -143h-168zM346 517l-78 -240h155z" />
    <glyph glyph-name="E.flat" 
d="M502 0h-439v690h430v-138h-262v-130h211v-137h-211v-146h271v-139z" />
    <glyph glyph-name="F.flat" horiz-adv-x="503" 
d="M476 547h-243v-141h192v-143h-192v-263h-170v690h413v-143z" />
    <glyph glyph-name="G.flat" horiz-adv-x="682" 
d="M630 60c-72 -47 -157 -73 -252 -73c-219 0 -340 144 -340 357c0 214 131 359 344 359c85 0 156 -20 211 -51l-23 -149c-52 33 -113 59 -184 59c-119 0 -177 -88 -177 -217c0 -130 60 -221 179 -221c38 0 65 8 93 22v123h-129v127h278v-336z" />
    <glyph glyph-name="K.flat" horiz-adv-x="658" 
d="M667 0h-208l-225 321v-321h-171v690h171v-295l214 295h197l-248 -322z" />
    <glyph glyph-name="L.flat" horiz-adv-x="493" 
d="M463 0h-400v690h171v-542h229v-148z" />
    <glyph glyph-name="Q.alt_flat" horiz-adv-x="747" 
d="M710 148v-163l-128 83c-56 -50 -130 -78 -216 -78c-199 0 -329 141 -329 354c0 214 131 359 331 359c207 0 329 -147 329 -351c0 -65 -13 -124 -36 -175zM528 349c0 133 -58 220 -159 220c-102 0 -160 -87 -160 -225s62 -225 163 -225c34 0 63 10 86 28l-84 53v158
l146 -94c5 25 8 54 8 85z" />
    <glyph glyph-name="R.flat" horiz-adv-x="620" 
d="M622 0h-199l-147 237h-43v-237h-170v690h241c167 0 265 -76 265 -218c0 -96 -48 -161 -130 -196zM401 462c0 64 -40 99 -114 99h-55v-201h53c74 0 116 36 116 102z" />
    <glyph glyph-name="T.flat" horiz-adv-x="612" 
d="M587 545h-195v-545h-172v545h-195v145h562v-145z" />
    <glyph glyph-name="V.flat" horiz-adv-x="700" 
d="M687 690l-249 -694h-176l-249 694h196l151 -477l149 477h178z" />
    <glyph glyph-name="W.flat" horiz-adv-x="995" 
d="M977 690l-188 -691h-173l-119 446l-119 -446h-172l-188 691h193l102 -432l112 432h172l112 -432l98 432h170z" />
    <glyph glyph-name="W.alt_flat" horiz-adv-x="1018" 
d="M1004 690l-224 -693h-172l-99 298l-103 -298h-169l-223 693h190l142 -470l95 275l-62 195h190l133 -470l131 470h171z" />
    <glyph glyph-name="X.flat" horiz-adv-x="661" 
d="M647 0h-200l-127 230l-133 -230h-175l215 345l-207 345h200l117 -216l123 216h177l-207 -332z" />
    <glyph glyph-name="Y.flat" horiz-adv-x="672" 
d="M670 690l-248 -436v-254h-172v252l-248 438h195l146 -279l146 279h181z" />
    <glyph glyph-name="Z.flat" horiz-adv-x="611" 
d="M569 0h-530v124l321 430h-300v136h509v-124l-321 -430h321v-136z" />
    <glyph glyph-name="f.flat" horiz-adv-x="339" 
d="M346 595c-14 2 -32 5 -54 5c-41 0 -60 -20 -60 -60v-50h99v-123h-99v-367h-151v367h-68v123h68v64c0 119 73 163 186 163c23 0 43 -3 61 -6z" />
    <glyph glyph-name="k.flat" horiz-adv-x="508" 
d="M511 0h-172l-136 229v-229h-151v698l151 24v-432l129 200h166l-156 -225z" />
    <glyph glyph-name="t.flat" horiz-adv-x="363" 
d="M344 3c-24 -7 -47 -10 -87 -10c-105 0 -178 38 -178 163v211h-65v123h65v146l150 24v-170h107v-123h-107v-187c0 -39 20 -58 60 -58c13 0 26 2 37 5z" />
    <glyph glyph-name="v.flat" horiz-adv-x="509" 
d="M501 490l-170 -492h-152l-171 492h168l88 -302l89 302h148z" />
    <glyph glyph-name="w.flat" horiz-adv-x="725" 
d="M716 490l-137 -491h-145l-71 280l-70 -280h-146l-138 491h161l66 -288l68 288h137l69 -287l65 287h141z" />
    <glyph glyph-name="x.flat" horiz-adv-x="496" 
d="M480 0h-167l-74 143l-80 -143h-144l148 239l-145 251h167l71 -139l77 139h143l-145 -234z" />
    <glyph glyph-name="y.flat" horiz-adv-x="512" 
d="M505 490l-175 -502c-44 -127 -103 -170 -208 -170c-32 0 -46 3 -59 6l-20 122c17 -5 32 -8 60 -8c35 0 65 13 83 51l4 10l-182 491h168l92 -301l89 301h148z" />
    <glyph glyph-name="z.flat" horiz-adv-x="467" 
d="M433 0h-406v114l217 258h-201v118h388v-115l-216 -257h218v-118z" />
    <glyph glyph-name="two.flat" horiz-adv-x="552" 
d="M506 0h-466v119l233 233c45 46 68 78 68 123c0 46 -32 72 -87 72c-60 0 -121 -27 -179 -69l-20 142c58 39 129 67 224 67c139 0 225 -73 225 -194c0 -92 -46 -152 -128 -230l-135 -130h265v-133z" />
    <glyph glyph-name="three.flat" horiz-adv-x="545" 
d="M508 189c0 -131 -109 -202 -255 -202c-87 0 -165 21 -222 53l21 130c56 -31 119 -50 186 -50c66 0 107 27 107 78c0 55 -37 86 -131 86h-68v124h63c86 0 123 31 123 79c0 43 -32 69 -97 69c-62 0 -122 -21 -173 -56l-21 127c53 36 130 62 219 62c151 0 237 -73 237 -178
c0 -89 -49 -134 -119 -160c81 -26 130 -73 130 -162z" />
    <glyph glyph-name="three.alt_flat" horiz-adv-x="545" 
d="M508 206c0 -132 -96 -219 -252 -219c-88 0 -166 22 -225 52l22 132c55 -30 122 -50 183 -50c72 0 111 30 111 87c0 58 -49 85 -144 85h-55l-16 99l165 152h-247v132h442v-121l-174 -156c112 -20 190 -71 190 -193z" />
    <glyph glyph-name="four.alt_flat" horiz-adv-x="610" 
d="M591 135h-95v-135h-154v135h-316v112l282 429h167l-287 -426h156v149l152 28v-177h95v-115z" />
    <glyph glyph-name="five.flat" horiz-adv-x="555" 
d="M519 226c0 -155 -114 -239 -273 -239c-84 0 -153 19 -212 46l22 139c55 -27 119 -49 189 -49c68 0 118 34 118 95c0 55 -37 88 -103 88c-41 0 -71 -9 -97 -20l-103 23l23 367h409v-135h-283l-8 -120c23 6 54 12 96 12c131 0 222 -72 222 -207z" />
    <glyph glyph-name="seven.flat" horiz-adv-x="541" 
d="M505 547l-247 -547h-172l247 537h-296v139h468v-129z" />
    <glyph glyph-name="sterling.flat" horiz-adv-x="551" 
d="M47 399h94l36 115c37 122 106 175 227 175c46 0 81 -6 108 -15l-20 -135c-24 8 -44 11 -71 11c-52 0 -79 -23 -98 -84l-21 -67h134v-127h-174l-44 -142h288v-130h-459v101l54 171h-54v127z" />
    <glyph glyph-name="Euro.flat" horiz-adv-x="609" 
d="M25 380v77h88c36 139 136 230 290 230c69 0 126 -14 172 -39l-22 -133c-43 25 -81 39 -136 39c-65 0 -112 -35 -134 -97h200v-77h-215c-1 -14 -1 -28 -1 -42c0 -11 0 -23 1 -34h215v-77h-202c22 -71 72 -105 147 -105c48 0 92 14 137 39l21 -129
c-53 -26 -108 -43 -182 -43c-166 0 -265 86 -295 238h-84v77h75c-1 11 -1 21 -1 33c0 14 1 29 2 43h-76z" />
    <glyph glyph-name="yen.flat" horiz-adv-x="649" 
d="M87 222v76h132l-212 378h187l139 -276l137 276h172l-217 -378h136v-76h-156v-65h156v-76h-156v-81h-164v81h-154v76h154v65h-154z" />
    <glyph glyph-name="numbersign.flat" horiz-adv-x="673" 
d="M554 678l-23 -143h104v-127h-124l-23 -140h123v-127h-143l-22 -143h-95l22 143h-136l-23 -143h-96l22 143h-102v127h122l23 140h-121v127h141l23 143h96l-23 -143h137l23 143h95zM278 411l-23 -146h139l24 146h-140z" />
    <glyph glyph-name="ordfeminine.flat" horiz-adv-x="401" 
d="M342 354h-91l-7 40c-31 -28 -64 -46 -107 -46c-54 0 -90 34 -90 87c0 74 58 111 192 121v6c0 32 -19 43 -55 43c-37 0 -71 -9 -106 -24l-11 74c37 15 83 26 139 26c90 0 136 -33 136 -111v-216zM346 222h-295v73h295v-73zM239 445v63c-69 -10 -92 -33 -92 -57
c0 -20 11 -32 31 -32s42 10 61 26z" />
    <glyph glyph-name="ordmasculine.flat" horiz-adv-x="402" 
d="M364 514c0 -103 -69 -166 -164 -166c-93 0 -162 63 -162 166s69 167 162 167c95 0 164 -64 164 -167zM354 222h-306v73h306v-73zM261 514c0 51 -22 85 -61 85c-38 0 -59 -35 -59 -85c0 -51 21 -85 59 -85c39 0 61 34 61 85z" />
    <glyph glyph-name="percent.flat" horiz-adv-x="894" 
d="M373 486c0 -129 -74 -200 -167 -200c-94 0 -168 70 -168 199s75 199 168 199s167 -70 167 -198zM279 0h-102l227 347l210 329h103l-228 -348zM856 191c0 -128 -75 -199 -168 -199c-94 0 -167 70 -167 198c0 130 74 200 167 200c94 0 168 -70 168 -199zM268 486
c0 71 -21 114 -62 114c-43 0 -64 -42 -64 -115c0 -70 22 -114 64 -114s62 43 62 115zM751 191c0 71 -22 114 -63 114c-43 0 -63 -43 -63 -115c0 -71 22 -114 63 -114c42 0 63 43 63 115z" />
    <glyph glyph-name="ampersand.flat" horiz-adv-x="671" 
d="M686 0h-187l-54 61c-54 -49 -119 -73 -193 -73c-135 0 -225 73 -225 194c0 95 53 159 134 202c-40 51 -55 90 -55 146c0 94 71 173 203 173c79 0 140 -19 186 -42l-23 -139c-55 30 -102 48 -146 48c-41 0 -62 -22 -62 -52c0 -24 12 -45 41 -77l141 -164
c12 38 22 82 29 135l128 -28c-12 -84 -34 -153 -68 -210zM273 110c33 0 66 12 96 38l-132 150c-38 -29 -57 -63 -57 -102c0 -51 35 -86 93 -86z" />
    <glyph glyph-name="exclam.flat" horiz-adv-x="295" 
d="M242 690l-49 -442h-91l-48 442h188zM229 0h-163v172h163v-172z" />
    <glyph glyph-name="exclamdown.flat" horiz-adv-x="295" 
d="M54 0l48 442h91l49 -442h-188zM67 690h162v-172h-162v172z" />
    <glyph glyph-name="guillemotleft.flat" horiz-adv-x="571" 
d="M297 490l-109 -245l109 -245h-109l-166 245l166 245h109zM536 490l-109 -245l109 -245h-109l-167 245l167 245h109z" />
    <glyph glyph-name="guillemotright.flat" horiz-adv-x="571" 
d="M274 0l109 244l-109 246h109l166 -246l-166 -244h-109zM36 0l108 244l-108 246h108l167 -246l-167 -244h-108z" />
    <glyph glyph-name="guilsinglleft.flat" horiz-adv-x="333" 
d="M297 490l-109 -245l109 -245h-109l-166 245l166 245h109z" />
    <glyph glyph-name="guilsinglright.flat" horiz-adv-x="333" 
d="M36 0l108 244l-108 246h108l167 -246l-167 -244h-108z" />
    <glyph glyph-name="parenleft.flat" horiz-adv-x="404" 
d="M214 314c0 -133 49 -228 144 -310l-15 -102c-190 88 -298 221 -298 412s108 324 298 412l15 -102c-95 -82 -144 -177 -144 -310z" />
    <glyph glyph-name="parenright.flat" horiz-adv-x="404" 
d="M190 314c0 133 -49 228 -144 310l15 102c190 -88 298 -221 298 -412s-108 -324 -298 -412l-15 102c95 82 144 177 144 310z" />
    <glyph glyph-name="bracketleft.flat" horiz-adv-x="418" 
d="M378 -104h-307v794h307v-93h-162v-608h162v-93z" />
    <glyph glyph-name="bracketright.flat" horiz-adv-x="418" 
d="M40 690h307v-794h-307v93h162v608h-162v93z" />
    <glyph glyph-name="braceleft.flat" horiz-adv-x="506" 
d="M465 -104h-150c-103 0 -156 50 -156 131c0 47 13 88 13 132c0 67 -40 88 -107 88h-33v93h34c66 0 106 21 106 87c0 45 -13 86 -13 132c0 81 53 131 156 131h150v-93h-89c-46 0 -68 -20 -68 -57c0 -40 13 -74 13 -119c0 -74 -41 -111 -114 -127v-2
c73 -16 114 -53 114 -127c0 -44 -13 -79 -13 -119c0 -36 21 -57 68 -57h89v-93z" />
    <glyph glyph-name="braceright.flat" horiz-adv-x="506" 
d="M40 690h150c103 0 156 -50 156 -131c0 -47 -14 -88 -14 -132c0 -67 41 -88 107 -88h34v-93h-34c-66 0 -107 -21 -107 -87c0 -45 14 -86 14 -132c0 -81 -53 -131 -156 -131h-150v93h89c46 0 68 20 68 57c0 40 -14 74 -14 119c0 74 41 111 115 127v2
c-74 16 -115 53 -115 127c0 44 14 79 14 119c0 36 -21 57 -68 57h-89v93z" />
    <glyph glyph-name="registered.alt_flat" horiz-adv-x="799" 
d="M745 346c0 -213 -142 -359 -346 -359c-205 0 -345 144 -345 357c0 214 142 359 346 359c205 0 345 -144 345 -357zM701 345c0 207 -132 322 -301 322c-172 0 -302 -115 -302 -322s132 -322 302 -322c171 0 301 115 301 322zM472 155l-85 128h-23v-128h-108v394h141
c102 0 161 -47 161 -129c0 -51 -25 -88 -67 -111l109 -154h-128zM363 470v-113h27c43 0 64 20 64 57c0 36 -22 56 -64 56h-27z" />
    <glyph glyph-name="registered.flat" horiz-adv-x="563" 
d="M508 470c0 -138 -95 -232 -227 -232c-134 0 -227 93 -227 232c0 138 95 233 227 233c134 0 227 -94 227 -233zM475 470c0 132 -86 206 -194 206s-194 -74 -194 -206c0 -131 86 -205 194 -205c109 0 194 74 194 205zM410 350h-82l-57 89h-14v-89h-69v256h98
c63 0 100 -28 100 -80c0 -37 -20 -60 -46 -71zM317 521c0 22 -14 35 -39 35h-21v-71h20c26 0 40 12 40 36z" />
    <glyph glyph-name="trademark.flat" horiz-adv-x="812" 
d="M777 345h-96l-14 216l-64 -218h-86l-64 218l-15 -216h-82l26 345h120l67 -225l67 225h115zM328 615h-104v-270h-93v270h-103v75h300v-75z" />
    <glyph glyph-name="trademark.alt_flat" horiz-adv-x="827" 
d="M779 345h-90v222l-78 -225h-76l-77 225v-222h-86v345h123l83 -228l78 228h123v-345zM328 615h-104v-270h-93v270h-103v75h300v-75z" />
    <glyph glyph-name="AE.flat" horiz-adv-x="907" 
d="M1 0l339 690h524v-138h-262v-130h211v-137h-211v-146h271v-139h-432v143h-197l-67 -143h-176zM304 277h137v299z" />
    <glyph glyph-name="OE.flat" horiz-adv-x="909" 
d="M875 0h-471c-240 0 -365 140 -365 344c0 205 128 346 361 346h466v-138h-262v-130h211v-137h-211v-146h271v-139zM438 133v424h-29c-122 0 -199 -64 -199 -212c0 -145 81 -212 199 -212h29z" />
    <glyph glyph-name="Eth.flat" horiz-adv-x="733" 
d="M696 346c0 -205 -128 -346 -361 -346h-243v283h-76v143h76v264h238c240 0 366 -139 366 -344zM523 345c0 145 -80 212 -198 212h-66v-134h122v-138h-122v-152h66c122 0 198 64 198 212z" />
    <glyph glyph-name="Dcroat.flat" horiz-adv-x="733" 
d="M696 346c0 -205 -128 -346 -361 -346h-243v283h-76v143h76v264h238c240 0 366 -139 366 -344zM523 345c0 145 -80 212 -198 212h-66v-134h122v-138h-122v-152h66c122 0 198 64 198 212z" />
    <glyph glyph-name="Hbar.flat" horiz-adv-x="766" 
d="M674 0h-172v274h-238v-274h-172v509h-80v103h80v78h171v-78h241v78h170v-78h80v-103h-80v-509zM263 419h241v94h-241v-94z" />
    <glyph glyph-name="Lslash.flat" horiz-adv-x="522" 
d="M390 386l-127 -68v-170h230v-148h-401v225l-76 -41v144l76 40v322h171v-229l127 70v-145z" />
    <glyph glyph-name="Aogonek.flat" horiz-adv-x="709" 
d="M13 0l248 693h188l247 -693h-40l-15 -24c-17 -27 -24 -42 -24 -59c0 -20 12 -30 35 -30c14 0 27 3 42 7v-74c-30 -13 -66 -23 -103 -23c-56 0 -91 28 -91 81c0 32 17 69 57 122h-44l-48 143h-238l-46 -143h-168zM346 517l-78 -240h155z" />
    <glyph glyph-name="Eogonek.flat" 
d="M502 0h-35l-15 -24c-17 -27 -24 -42 -24 -59c0 -20 12 -30 35 -30c14 0 27 3 42 7v-74c-30 -13 -66 -23 -103 -23c-56 0 -91 28 -91 81c0 32 17 69 57 122h-305v690h430v-138h-262v-130h211v-137h-211v-146h271v-139z" />
    <glyph glyph-name="Aring.flat" horiz-adv-x="709" 
d="M484 732c0 -26 -9 -49 -25 -68l237 -664h-182l-49 143h-239l-46 -143h-167l235 660c-19 19 -28 44 -28 72c0 59 45 108 132 108c86 0 132 -49 132 -108zM346 517l-79 -240h156zM402 732c0 31 -20 58 -50 58s-50 -27 -50 -58c0 -32 20 -58 50 -58s50 26 50 58z" />
    <glyph glyph-name="Aringacute.flat" horiz-adv-x="709" 
d="M484 732c0 -26 -9 -49 -25 -68l237 -664h-182l-49 143h-239l-46 -143h-167l235 660c-19 19 -28 44 -28 72c0 59 45 108 132 108c86 0 132 -49 132 -108zM533 988l-147 -121h-96l60 151zM346 517l-79 -240h156zM402 732c0 31 -20 58 -50 58s-50 -27 -50 -58
c0 -32 20 -58 50 -58s50 26 50 58z" />
    <glyph glyph-name="Ldot.flat" horiz-adv-x="493" 
d="M458 301h-127v131h127v-131zM463 0h-400v690h171v-542h229v-148z" />
    <glyph glyph-name="Aacute.flat" horiz-adv-x="709" 
d="M13 0l248 693h188l247 -693h-183l-48 143h-238l-46 -143h-168zM533 872l-147 -121h-96l60 151zM346 517l-78 -240h155z" />
    <glyph glyph-name="Agrave.flat" horiz-adv-x="709" 
d="M13 0l248 693h188l247 -693h-183l-48 143h-238l-46 -143h-168zM414 751h-100l-146 121l185 30zM346 517l-78 -240h155z" />
    <glyph glyph-name="Acircumflex.flat" horiz-adv-x="709" 
d="M13 0l248 693h188l247 -693h-183l-48 143h-238l-46 -143h-168zM520 751h-96l-74 58l-74 -58h-96l100 147h140zM346 517l-78 -240h155z" />
    <glyph glyph-name="Abreve.flat" horiz-adv-x="709" 
d="M13 0l248 693h188l247 -693h-183l-48 143h-238l-46 -143h-168zM510 886c-13 -84 -65 -136 -159 -136c-93 0 -145 51 -158 136l83 13c15 -40 36 -56 75 -56s60 16 75 56zM346 517l-78 -240h155z" />
    <glyph glyph-name="Atilde.flat" horiz-adv-x="709" 
d="M13 0l248 693h188l247 -693h-183l-48 143h-238l-46 -143h-168zM522 890c-13 -103 -45 -139 -95 -139c-26 0 -44 8 -71 20c-38 16 -50 21 -65 21s-24 -9 -32 -44l-72 15c14 104 46 140 96 140c26 0 43 -7 71 -20c38 -17 50 -21 65 -21s24 10 32 45zM346 517l-78 -240h155z
" />
    <glyph glyph-name="Amacron.flat" horiz-adv-x="709" 
d="M13 0l248 693h188l247 -693h-183l-48 143h-238l-46 -143h-168zM503 761h-304v105h304v-105zM346 517l-78 -240h155z" />
    <glyph glyph-name="Adieresis.flat" horiz-adv-x="709" 
d="M13 0l248 693h188l247 -693h-183l-48 143h-238l-46 -143h-168zM346 517l-78 -240h155zM317 752h-130v131h130v-131zM515 752h-130v131h130v-131z" />
    <glyph glyph-name="Eacute.flat" 
d="M463 862l-147 -121h-96l60 151zM502 0h-439v690h430v-138h-262v-130h211v-137h-211v-146h271v-139z" />
    <glyph glyph-name="Egrave.flat" 
d="M502 0h-439v690h430v-138h-262v-130h211v-137h-211v-146h271v-139zM344 741h-100l-146 121l185 30z" />
    <glyph glyph-name="Ecircumflex.flat" 
d="M451 741h-96l-74 58l-74 -58h-96l100 147h140zM502 0h-439v690h430v-138h-262v-130h211v-137h-211v-146h271v-139z" />
    <glyph glyph-name="Ecaron.flat" 
d="M111 888h96l74 -58l74 58h96l-100 -147h-140zM502 0h-439v690h430v-138h-262v-130h211v-137h-211v-146h271v-139z" />
    <glyph glyph-name="Ebreve.flat" 
d="M502 0h-439v690h430v-138h-262v-130h211v-137h-211v-146h271v-139zM440 876c-13 -84 -65 -136 -159 -136c-93 0 -145 51 -158 136l83 13c15 -40 36 -56 75 -56s60 16 75 56z" />
    <glyph glyph-name="Emacron.flat" 
d="M502 0h-439v690h430v-138h-262v-130h211v-137h-211v-146h271v-139zM433 751h-304v105h304v-105z" />
    <glyph glyph-name="Edieresis.flat" 
d="M445 742h-130v131h130v-131zM247 742h-130v131h130v-131zM502 0h-439v690h430v-138h-262v-130h211v-137h-211v-146h271v-139z" />
    <glyph glyph-name="Edotaccent.flat" 
d="M502 0h-439v690h430v-138h-262v-130h211v-137h-211v-146h271v-139zM349 742h-135v131h135v-131z" />
    <glyph glyph-name="Gbreve.flat" horiz-adv-x="682" 
d="M630 60c-72 -47 -157 -73 -252 -73c-219 0 -340 144 -340 357c0 214 131 359 344 359c85 0 156 -20 211 -51l-23 -149c-52 33 -113 59 -184 59c-119 0 -177 -88 -177 -217c0 -130 60 -221 179 -221c38 0 65 8 93 22v123h-129v127h278v-336zM524 886
c-13 -84 -65 -136 -159 -136c-93 0 -145 51 -158 136l83 13c15 -40 36 -56 75 -56s60 16 75 56z" />
    <glyph glyph-name="Gdotaccent.flat" horiz-adv-x="682" 
d="M630 60c-72 -47 -157 -73 -252 -73c-219 0 -340 144 -340 357c0 214 131 359 344 359c85 0 156 -20 211 -51l-23 -149c-52 33 -113 59 -184 59c-119 0 -177 -88 -177 -217c0 -130 60 -221 179 -221c38 0 65 8 93 22v123h-129v127h278v-336zM433 752h-135v131h135v-131z
" />
    <glyph glyph-name="Gcommaaccent.flat" horiz-adv-x="682" 
d="M283 -81l121 23c29 -26 45 -53 45 -88c0 -43 -29 -87 -89 -129l-93 19c37 43 51 71 51 101c0 24 -8 45 -35 74zM630 60c-72 -47 -157 -73 -252 -73c-219 0 -340 144 -340 357c0 214 131 359 344 359c85 0 156 -20 211 -51l-23 -149c-52 33 -113 59 -184 59
c-119 0 -177 -88 -177 -217c0 -130 60 -221 179 -221c38 0 65 8 93 22v123h-129v127h278v-336z" />
    <glyph glyph-name="Kcommaaccent.flat" horiz-adv-x="658" 
d="M667 0h-208l-225 321v-321h-171v690h171v-295l214 295h197l-248 -322zM256 -65l121 23c29 -26 45 -53 45 -88c0 -43 -29 -87 -89 -129l-93 19c37 43 51 71 51 101c0 24 -8 45 -35 74z" />
    <glyph glyph-name="Lacute.flat" horiz-adv-x="493" 
d="M354 868l-147 -121h-96l60 151zM463 0h-400v690h171v-542h229v-148z" />
    <glyph glyph-name="Lcaron.flat" horiz-adv-x="493" 
d="M415 702c8 -24 12 -48 12 -72c0 -48 -25 -97 -68 -138l-71 15c19 38 26 66 26 101c0 22 -7 49 -19 78zM463 0h-400v690h171v-542h229v-148z" />
    <glyph glyph-name="Lcommaaccent.flat" horiz-adv-x="493" 
d="M181 -80l121 23c29 -26 45 -53 45 -88c0 -43 -29 -87 -89 -129l-93 19c37 43 51 71 51 101c0 24 -8 45 -35 74zM463 0h-400v690h171v-542h229v-148z" />
    <glyph glyph-name="Racute.flat" horiz-adv-x="620" 
d="M482 862l-147 -121h-96l60 151zM622 0h-199l-147 237h-43v-237h-170v690h241c167 0 265 -76 265 -218c0 -96 -48 -161 -130 -196zM401 462c0 64 -40 99 -114 99h-55v-201h53c74 0 116 36 116 102z" />
    <glyph glyph-name="Rcaron.flat" horiz-adv-x="620" 
d="M131 888h96l74 -58l74 58h96l-100 -147h-140zM622 0h-199l-147 237h-43v-237h-170v690h241c167 0 265 -76 265 -218c0 -96 -48 -161 -130 -196zM401 462c0 64 -40 99 -114 99h-55v-201h53c74 0 116 36 116 102z" />
    <glyph glyph-name="Rcommaaccent.flat" horiz-adv-x="620" 
d="M228 -65l121 23c29 -26 45 -53 45 -88c0 -43 -29 -87 -89 -129l-93 19c37 43 51 71 51 101c0 24 -8 45 -35 74zM622 0h-199l-147 237h-43v-237h-170v690h241c167 0 265 -76 265 -218c0 -96 -48 -161 -130 -196zM401 462c0 64 -40 99 -114 99h-55v-201h53
c74 0 116 36 116 102z" />
    <glyph glyph-name="Tcaron.flat" horiz-adv-x="612" 
d="M136 888h96l74 -58l74 58h96l-100 -147h-140zM587 545h-195v-545h-172v545h-195v145h562v-145z" />
    <glyph glyph-name="Tcommaaccent.flat" horiz-adv-x="612" 
d="M224 -80l121 23c29 -26 45 -53 45 -88c0 -43 -29 -87 -89 -129l-93 19c37 43 51 71 51 101c0 24 -8 45 -35 74zM587 545h-195v-545h-172v545h-195v145h562v-145z" />
    <glyph glyph-name="Wacute.flat" horiz-adv-x="995" 
d="M693 862l-147 -121h-96l60 151zM977 690l-188 -691h-173l-119 446l-119 -446h-172l-188 691h193l102 -432l112 432h172l112 -432l98 432h170z" />
    <glyph glyph-name="Wgrave.flat" horiz-adv-x="995" 
d="M977 690l-188 -691h-173l-119 446l-119 -446h-172l-188 691h193l102 -432l112 432h172l112 -432l98 432h170zM574 741h-100l-146 121l185 30z" />
    <glyph glyph-name="Wcircumflex.flat" horiz-adv-x="995" 
d="M680 741h-96l-74 58l-74 -58h-96l100 147h140zM977 690l-188 -691h-173l-119 446l-119 -446h-172l-188 691h193l102 -432l112 432h172l112 -432l98 432h170z" />
    <glyph glyph-name="Wdieresis.flat" horiz-adv-x="995" 
d="M675 742h-130v131h130v-131zM477 742h-130v131h130v-131zM977 690l-188 -691h-173l-119 446l-119 -446h-172l-188 691h193l102 -432l112 432h172l112 -432l98 432h170z" />
    <glyph glyph-name="Wacute.alt_flat" horiz-adv-x="1018" 
d="M1004 690l-224 -693h-172l-99 298l-103 -298h-169l-223 693h190l142 -470l95 275l-62 195h190l133 -470l131 470h171zM690 862l-147 -121h-96l60 151z" />
    <glyph glyph-name="Wgrave.alt_flat" horiz-adv-x="1018" 
d="M1004 690l-224 -693h-172l-99 298l-103 -298h-169l-223 693h190l142 -470l95 275l-62 195h190l133 -470l131 470h171zM571 741h-100l-146 121l185 30z" />
    <glyph glyph-name="Wcircumflex.alt_flat" horiz-adv-x="1018" 
d="M1004 690l-224 -693h-172l-99 298l-103 -298h-169l-223 693h190l142 -470l95 275l-62 195h190l133 -470l131 470h171zM677 741h-96l-74 58l-74 -58h-96l100 147h140z" />
    <glyph glyph-name="Wdieresis.alt_flat" horiz-adv-x="1018" 
d="M1004 690l-224 -693h-172l-99 298l-103 -298h-169l-223 693h190l142 -470l95 275l-62 195h190l133 -470l131 470h171zM474 742h-130v131h130v-131zM672 742h-130v131h130v-131z" />
    <glyph glyph-name="Yacute.flat" horiz-adv-x="672" 
d="M524 859l-147 -121h-96l60 151zM670 690l-248 -436v-254h-172v252l-248 438h195l146 -279l146 279h181z" />
    <glyph glyph-name="Ygrave.flat" horiz-adv-x="672" 
d="M670 690l-248 -436v-254h-172v252l-248 438h195l146 -279l146 279h181zM405 738h-100l-146 121l185 30z" />
    <glyph glyph-name="Ycircumflex.flat" horiz-adv-x="672" 
d="M511 738h-96l-74 58l-74 -58h-96l100 147h140zM670 690l-248 -436v-254h-172v252l-248 438h195l146 -279l146 279h181z" />
    <glyph glyph-name="Ydieresis.flat" horiz-adv-x="672" 
d="M506 739h-130v131h130v-131zM308 739h-130v131h130v-131zM670 690l-248 -436v-254h-172v252l-248 438h195l146 -279l146 279h181z" />
    <glyph glyph-name="Zacute.flat" horiz-adv-x="611" 
d="M493 862l-147 -121h-96l60 151zM569 0h-530v124l321 430h-300v136h509v-124l-321 -430h321v-136z" />
    <glyph glyph-name="Zcaron.flat" horiz-adv-x="611" 
d="M142 888h96l74 -58l74 58h96l-100 -147h-140zM569 0h-530v124l321 430h-300v136h509v-124l-321 -430h321v-136z" />
    <glyph glyph-name="Zdotaccent.flat" horiz-adv-x="611" 
d="M569 0h-530v124l321 430h-300v136h509v-124l-321 -430h321v-136zM380 742h-135v131h135v-131z" />
    <glyph glyph-name="AEacute.flat" horiz-adv-x="907" 
d="M1 0l339 690h524v-138h-262v-130h211v-137h-211v-146h271v-139h-432v143h-197l-67 -143h-176zM693 862l-147 -121h-96l60 151zM304 277h137v299z" />
    <glyph glyph-name="dcroat.flat" horiz-adv-x="544" 
d="M492 0h-134l-10 64c-33 -37 -78 -74 -141 -74c-100 0 -177 76 -177 241c0 187 99 263 207 263c45 0 76 -7 104 -17v72h-121v93h121v56l151 24v-80h65v-93h-65v-549zM341 174v187c-22 10 -39 14 -71 14c-50 0 -88 -39 -88 -133c0 -84 32 -118 75 -118c32 0 58 21 84 50z
" />
    <glyph glyph-name="hbar.flat" horiz-adv-x="537" 
d="M488 0h-152v307c0 35 -14 59 -50 59c-29 0 -56 -17 -83 -44v-322h-151v549h-62v93h62v56l151 24v-80h124v-93h-124v-120c41 40 86 71 146 71c91 0 139 -56 139 -152v-348z" />
    <glyph glyph-name="lslash.flat" horiz-adv-x="318" 
d="M234 0h-149v238l-72 -39v145l72 37v317l149 24v-263l72 39v-144l-72 -38v-316z" />
    <glyph glyph-name="kcommaaccent.flat" horiz-adv-x="508" 
d="M511 0h-172l-136 229v-229h-151v698l151 24v-432l129 200h166l-156 -225zM183 -73l121 23c29 -26 45 -53 45 -88c0 -43 -29 -87 -89 -129l-93 19c37 43 51 71 51 101c0 24 -8 45 -35 74z" />
    <glyph glyph-name="tcaron.flat" horiz-adv-x="363" 
d="M398 740c8 -24 12 -48 12 -72c0 -48 -25 -97 -68 -138l-71 15c19 38 26 66 26 101c0 22 -7 49 -19 78zM344 3c-24 -7 -47 -10 -87 -10c-105 0 -178 38 -178 163v211h-65v123h65v146l150 24v-170h107v-123h-107v-187c0 -39 20 -58 60 -58c13 0 26 2 37 5z" />
    <glyph glyph-name="tcommaaccent.flat" horiz-adv-x="363" 
d="M116 -73l121 23c29 -26 45 -53 45 -88c0 -43 -29 -87 -89 -129l-93 19c37 43 51 71 51 101c0 24 -8 45 -35 74zM344 3c-24 -7 -47 -10 -87 -10c-105 0 -178 38 -178 163v211h-65v123h65v146l150 24v-170h107v-123h-107v-187c0 -39 20 -58 60 -58c13 0 26 2 37 5z" />
    <glyph glyph-name="wacute.flat" horiz-adv-x="725" 
d="M552 668l-147 -121h-96l60 151zM716 490l-137 -491h-145l-71 280l-70 -280h-146l-138 491h161l66 -288l68 288h137l69 -287l65 287h141z" />
    <glyph glyph-name="wgrave.flat" horiz-adv-x="725" 
d="M716 490l-137 -491h-145l-71 280l-70 -280h-146l-138 491h161l66 -288l68 288h137l69 -287l65 287h141zM433 547h-100l-146 121l185 30z" />
    <glyph glyph-name="wcircumflex.flat" horiz-adv-x="725" 
d="M539 547h-96l-74 58l-74 -58h-96l100 147h140zM716 490l-137 -491h-145l-71 280l-70 -280h-146l-138 491h161l66 -288l68 288h137l69 -287l65 287h141z" />
    <glyph glyph-name="wdieresis.flat" horiz-adv-x="725" 
d="M534 548h-130v131h130v-131zM336 548h-130v131h130v-131zM716 490l-137 -491h-145l-71 280l-70 -280h-146l-138 491h161l66 -288l68 288h137l69 -287l65 287h141z" />
    <glyph glyph-name="yacute.flat" horiz-adv-x="512" 
d="M450 668l-147 -121h-96l60 151zM505 490l-175 -502c-44 -127 -103 -170 -208 -170c-32 0 -46 3 -59 6l-20 122c17 -5 32 -8 60 -8c35 0 65 13 83 51l4 10l-182 491h168l92 -301l89 301h148z" />
    <glyph glyph-name="ygrave.flat" horiz-adv-x="512" 
d="M505 490l-175 -502c-44 -127 -103 -170 -208 -170c-32 0 -46 3 -59 6l-20 122c17 -5 32 -8 60 -8c35 0 65 13 83 51l4 10l-182 491h168l92 -301l89 301h148zM332 547h-100l-146 121l185 30z" />
    <glyph glyph-name="ycircumflex.flat" horiz-adv-x="512" 
d="M438 547h-96l-74 58l-74 -58h-96l100 147h140zM505 490l-175 -502c-44 -127 -103 -170 -208 -170c-32 0 -46 3 -59 6l-20 122c17 -5 32 -8 60 -8c35 0 65 13 83 51l4 10l-182 491h168l92 -301l89 301h148z" />
    <glyph glyph-name="ydieresis.flat" horiz-adv-x="512" 
d="M433 548h-130v131h130v-131zM235 548h-130v131h130v-131zM505 490l-175 -502c-44 -127 -103 -170 -208 -170c-32 0 -46 3 -59 6l-20 122c17 -5 32 -8 60 -8c35 0 65 13 83 51l4 10l-182 491h168l92 -301l89 301h148z" />
    <glyph glyph-name="zacute.flat" horiz-adv-x="467" 
d="M418 668l-147 -121h-96l60 151zM433 0h-406v114l217 258h-201v118h388v-115l-216 -257h218v-118z" />
    <glyph glyph-name="zcaron.flat" horiz-adv-x="467" 
d="M67 694h96l74 -58l74 58h96l-100 -147h-140zM433 0h-406v114l217 258h-201v118h388v-115l-216 -257h218v-118z" />
    <glyph glyph-name="zdotaccent.flat" horiz-adv-x="467" 
d="M433 0h-406v114l217 258h-201v118h388v-115l-216 -257h218v-118zM304 548h-135v131h135v-131z" />
    <glyph glyph-name="f_f.flat" horiz-adv-x="691" 
d="M346 595c-14 2 -32 5 -54 5c-41 0 -60 -20 -60 -60v-50h99v-123h-99v-367h-151v367h-68v123h68v64c0 119 73 163 186 163c23 0 43 -3 61 -6zM697 595c-14 2 -32 5 -54 5c-41 0 -60 -20 -60 -60v-50h99v-123h-99v-367h-151v367h-68v123h68v64c0 119 73 163 186 163
c23 0 43 -3 61 -6z" />
    <glyph glyph-name="f_f_i.flat" horiz-adv-x="953" 
d="M907 635c0 -49 -37 -81 -86 -81c-48 0 -86 32 -86 81c0 50 38 83 86 83c49 0 86 -33 86 -83zM897 0h-152v490h152v-490zM346 595c-14 2 -32 5 -54 5c-41 0 -60 -20 -60 -60v-50h99v-123h-99v-367h-151v367h-68v123h68v64c0 119 73 163 186 163c23 0 43 -3 61 -6zM697 595
c-14 2 -32 5 -54 5c-41 0 -60 -20 -60 -60v-50h99v-123h-99v-367h-151v367h-68v123h68v64c0 119 73 163 186 163c23 0 43 -3 61 -6z" />
    <glyph glyph-name="f_f_l.flat" horiz-adv-x="953" 
d="M897 0h-152v698l152 24v-722zM346 595c-14 2 -32 5 -54 5c-41 0 -60 -20 -60 -60v-50h99v-123h-99v-367h-151v367h-68v123h68v64c0 119 73 163 186 163c23 0 43 -3 61 -6zM697 595c-14 2 -32 5 -54 5c-41 0 -60 -20 -60 -60v-50h99v-123h-99v-367h-151v367h-68v123h68v64
c0 119 73 163 186 163c23 0 43 -3 61 -6z" />
    <glyph glyph-name="fi.flat" horiz-adv-x="601" 
d="M556 635c0 -49 -37 -81 -86 -81c-48 0 -86 32 -86 81c0 50 38 83 86 83c49 0 86 -33 86 -83zM546 0h-152v490h152v-490zM346 595c-14 2 -32 5 -54 5c-41 0 -60 -20 -60 -60v-50h99v-123h-99v-367h-151v367h-68v123h68v64c0 119 73 163 186 163c23 0 43 -3 61 -6z" />
    <glyph glyph-name="fl.flat" horiz-adv-x="601" 
d="M546 0h-152v698l152 24v-722zM346 595c-14 2 -32 5 -54 5c-41 0 -60 -20 -60 -60v-50h99v-123h-99v-367h-151v367h-68v123h68v64c0 119 73 163 186 163c23 0 43 -3 61 -6z" />
    <glyph glyph-name="one.sup_flat" horiz-adv-x="360" 
d="M322 405h-270v86h87v194l-81 -31l-12 85l121 49h82v-297h73v-86z" />
    <glyph glyph-name="two.sup_flat" horiz-adv-x="360" 
d="M322 405h-284v83l131 119c24 21 36 34 36 55c0 22 -17 33 -42 33c-35 0 -70 -17 -105 -37l-13 92c37 22 81 39 140 39c86 0 134 -47 134 -109c0 -54 -31 -86 -78 -127l-67 -57h148v-91z" />
    <glyph glyph-name="three.sup_flat" horiz-adv-x="360" 
d="M327 509c0 -70 -67 -111 -159 -111c-51 0 -101 11 -137 29l16 85c33 -16 77 -27 114 -27c35 0 56 14 56 37c0 26 -21 37 -79 37h-40v73h41c55 0 71 17 71 37c0 19 -16 32 -49 32c-35 0 -77 -12 -107 -30l-16 84c37 19 80 34 138 34c91 0 144 -39 144 -100
c0 -45 -31 -74 -77 -88c54 -14 84 -44 84 -92z" />
    <glyph glyph-name="onehalf.flat" horiz-adv-x="810" 
d="M322 305h-270v86h87v194l-81 -31l-12 85l121 49h82v-297h73v-86zM772 0h-284v82l131 120c24 20 36 34 36 55s-17 33 -42 33c-35 0 -70 -17 -105 -38l-13 93c37 22 81 39 140 39c86 0 134 -47 134 -109c0 -55 -31 -87 -78 -128l-67 -56h148v-91zM242 -14l-68 18l213 341
l201 339l68 -18l-214 -341z" />
    <glyph glyph-name="onequarter.flat" horiz-adv-x="810" 
d="M778 70h-49v-73h-104v73h-165v69l138 240h131v-235h49v-74zM634 141v61l7 101h-7l-32 -70l-27 -47l-30 -44l3 -5l44 4h42zM322 305h-270v86h87v194l-81 -31l-12 85l121 49h82v-297h73v-86zM257 -14l-68 18l213 341l201 339l68 -18l-214 -341z" />
    <glyph glyph-name="threequarters.flat" horiz-adv-x="810" 
d="M778 70h-49v-73h-104v73h-165v69l138 240h131v-235h49v-74zM634 141v61l7 101h-7l-32 -70l-27 -47l-30 -44l3 -5l44 4h42zM327 409c0 -70 -67 -111 -159 -111c-51 0 -101 11 -137 29l16 85c33 -16 77 -27 114 -27c35 0 56 14 56 37c0 26 -21 37 -79 37h-40v73h41
c55 0 71 17 71 37c0 19 -16 32 -49 32c-35 0 -77 -12 -107 -30l-16 84c37 19 80 34 138 34c91 0 144 -39 144 -100c0 -45 -31 -74 -77 -88c54 -14 84 -44 84 -92zM247 -14l-68 18l213 341l201 339l68 -18l-214 -341z" />
    <glyph glyph-name="i.dot" horiz-adv-x="262" 
d="M217 635c0 -49 -37 -81 -86 -81c-48 0 -86 32 -86 81c0 50 38 83 86 83c49 0 86 -33 86 -83zM207 0h-152v490h152v-490z" />
    <glyph glyph-name="fraction" unicode="&#x2044;" horiz-adv-x="270" 
d="M-38 -14l-68 18l213 341l201 339l68 -18l-214 -341z" />
    <glyph glyph-name="acute" unicode="&#xb4;" horiz-adv-x="454" 
d="M357 668l-147 -121h-96l60 151z" />
    <glyph glyph-name="hungarumlaut" unicode="&#x2dd;" horiz-adv-x="454" 
d="M428 668l-134 -120h-94l49 114l-127 -114h-94l64 150l160 -30l13 30z" />
    <glyph glyph-name="caron.alt" horiz-adv-x="454" 
d="M287 707c8 -24 12 -48 12 -72c0 -48 -25 -97 -68 -138l-71 15c19 38 26 66 26 101c0 22 -7 49 -19 78z" />
    <glyph glyph-name="grave" unicode="`" horiz-adv-x="454" 
d="M342 547h-100l-146 121l185 30z" />
    <glyph glyph-name="circumflex" unicode="&#x2c6;" horiz-adv-x="454" 
d="M398 547h-96l-74 58l-74 -58h-96l100 147h140z" />
    <glyph glyph-name="caron" unicode="&#x2c7;" horiz-adv-x="454" 
d="M56 694h96l74 -58l74 58h96l-100 -147h-140z" />
    <glyph glyph-name="breve" unicode="&#x2d8;" horiz-adv-x="454" 
d="M386 682c-13 -84 -65 -136 -159 -136c-93 0 -145 51 -158 136l83 13c15 -40 36 -56 75 -56s60 16 75 56z" />
    <glyph glyph-name="tilde" unicode="&#x2dc;" horiz-adv-x="454" 
d="M394 686c-13 -103 -45 -139 -95 -139c-26 0 -44 8 -71 20c-38 16 -50 21 -65 21s-24 -9 -32 -44l-72 15c14 104 46 140 96 140c26 0 43 -7 71 -20c38 -17 50 -21 65 -21s24 10 32 45z" />
    <glyph glyph-name="macron" unicode="&#xaf;" horiz-adv-x="454" 
d="M379 557h-304v105h304v-105z" />
    <glyph glyph-name="dieresis" unicode="&#xa8;" horiz-adv-x="454" 
d="M391 548h-130v131h130v-131zM193 548h-130v131h130v-131z" />
    <glyph glyph-name="dotaccent" unicode="&#x2d9;" horiz-adv-x="454" 
d="M295 548h-135v131h135v-131z" />
    <glyph glyph-name="ring" unicode="&#x2da;" horiz-adv-x="454" 
d="M359 653c0 -60 -45 -108 -132 -108s-132 48 -132 108c0 59 45 108 132 108s132 -49 132 -108zM277 653c0 31 -20 58 -50 58s-50 -27 -50 -58c0 -32 20 -58 50 -58s50 26 50 58z" />
    <glyph glyph-name="commaaccent" unicode="&#x326;" horiz-adv-x="454" 
d="M148 -73l121 23c29 -26 45 -53 45 -88c0 -43 -29 -87 -89 -129l-93 19c37 43 51 71 51 101c0 24 -8 45 -35 74z" />
    <glyph glyph-name="cedilla" unicode="&#xb8;" horiz-adv-x="454" 
d="M342 -81l-139 -106h-97l54 137z" />
    <glyph glyph-name="ogonek" unicode="&#x2db;" horiz-adv-x="454" 
d="M231 42l82 -18l-30 -48c-17 -27 -24 -42 -24 -59c0 -20 12 -30 35 -30c14 0 27 3 42 7v-74c-30 -13 -66 -23 -103 -23c-56 0 -91 28 -91 81c0 33 18 70 60 126z" />
    </font>
</defs>
</svg>
